новый адрес
Мега распродажа FORZA HORIZON 4 ULTIMATE+ВСЕ DLC+ОНЛАЙН всего за 499р. 349 руб. (супер цена). Внимание количество ограничено!!!

iTunes

1+1

iTunes

мы

iTunes

1

iTunes

Чернобыль

iTunes

Ральф против интернета

Лицензия

ПШазам

Лицензия

Оно 2

Лицензия

30
pack

ВАЖНО

!!Акция!!

Alien_RageХит недели

RePack

Resident Evil 21

ИГРА 18+

pack

RePack

Metro:Exodus

!!Акция!!

Alien_Rage

RePack

fifa19

RePack

Assassins Creed: Odyssey

RePack

NEED FOR SPEED™ PAYBACK

3 сезон

9 сезон

Бесстыжие 9 сезон

Все сериалы

все сериалы на PB.wtf

RePack

FAR CRY 5
Ребята, катастрофически не хватает 1900р. для оплаты серверов за Октябрь (всвязи с блокировками трафик упал в 3 раза), 1-2р., выручайте.
  

Порожний рейс (Владимир Венгеров) [1963, СССР, драма, SATRip от AVP Studio] pb.wtf

Порожний рейс через торрент pb.wtf

Раздают: 3 [ 0 KB/s ]
Размер: 743 MB | Добавлен: 4 мес. 21 д. назад | Торрент скачан:6 раз
Скачать  

29-06-2019 08:30 Порожний рейс Скачать торрент  

Порожний рейс
Страна: СССР
Производство: Ленфильм

Жанр: драма
Год выпуска: 1963
Продолжительность: 01:28:41

Перевод: Не требуется
Cубтитры: нет
Оригинальная аудиодорожка: русский

Режиссер: Владимир Венгеров

В ролях:
Георгий Юматов, Александр Демьяненко, Тамара Сёмина, Анатолий Папанов, Герман Качин, Светлана Харитонова, Борис Чирков...
Об актёрах подробней

Описание:
По одноименному рассказу Сергея Антонова.
Молодой журналист центральной газеты Сироткин приехал в сибирский леспромхоз, чтобы написать очерк о славном шофере Хромове. Но вскоре пытливый ум Сироткина вычислил хитрость Хромова, который, отмечая в путевках один километраж, ездил коротким, только ему известным маршрутом, сливая оставшийся бензин у обочин.

Исходник: DVB
Качество видео: SATRip
Формат видео: AVI

Видео: 688x320 (2,2:1), 25,000 кадров/сек, XviD ~ 970 kbps avg, 0.176 bit/pixel
Аудио: 48 kHz, Dolby Digital AC3 2.0, 192 kbps

Раздача от:
Общее
Полное имя : Porozhniy.reys.1963.SATRip_[New-team]_by_AVP_Studio.avi
Формат : AVI
Формат/Информация : Audio Video Interleave
Размер файла : 743 Мбайт
Продолжительность : 1 ч. 28 м.
Общий поток : 1171 Кбит/сек
Программа кодирования : VirtualDubMod 1.5.10.3 | www.virtualdub-fr.org || (build 2550/release)
Библиотека кодирования : VirtualDubMod build 2550/release

Видео
Идентификатор : 0
Формат : MPEG-4 Visual
Профиль формата : Advanced Simple@L5
Настройки формата : BVOP1 / Custom Matrix
Параметр BVOP формата : 1
Параметр QPel формата : Нет
Параметр GMC формата : Без точки перехода
Параметр матрицы формата : Выборочная
Идентификатор кодека : XVID
Идентификатор кодека/Подсказка : XviD
Продолжительность : 1 ч. 28 м.
Битрейт : 970 Кбит/сек
Ширина : 688 пикселей
Высота : 320 пикселей
Соотношение сторон : 2,2:1
Частота кадров : 25,000 кадров/сек
Цветовое пространство : YUV
Субдискретизация насыщенности : 4:2:0
Битовая глубина : 8 бит
Тип развёртки : Прогрессивная
Метод сжатия : С потерями
Бит/(Пиксели*Кадры) : 0.176
Размер потока : 615 Мбайт (83%)
Библиотека кодирования : XviD 73

Аудио
Идентификатор : 1
Формат : AC-3
Формат/Информация : Audio Coding 3
Коммерческое название : Dolby Digital
Идентификатор кодека : 2000
Продолжительность : 1 ч. 28 м.
Вид битрейта : Постоянный
Битрейт : 192 Кбит/сек
Каналы : 2 канала
ChannelLayout : L R
Частота : 48,0 КГц
Частота кадров : 31,250 кадров/сек (1536 SPF)
Битовая глубина : 16 бит
Метод сжатия : С потерями
Размер потока : 122 Мбайт (16%)
Выравнивание : Разделение по промежуткам
Продолжительность промежутка : 40 мс. (1,00 видеокадр)
Время предзагрузки промежутка : 500 мс
pb.wtf



Скачать Порожний рейс через торрент http://picplus.ru/img/1906/29/f8c1adbe.png Скачать фильм Порожний рейс через торрент бесплантно в хорошем качестве Описание:По одноименному рассказу Сергея Антонова.Молодой журналист центральной газеты Сироткин приехал в сибирский леспромхоз, чтобы ... 5 10 1
Торрент: Зарегистрирован [2019-06-29 08:30] · скачан: 6 раз
Статус: √ проверено
Размер: 743 MB
Как cкачать? Как скачать Порожний рейс через торрент | qTorrent

% Раздел Тема Автор DL S | L
Кино СССР [ 744 MB ] Порожний рейс [1963 СССР SATRip-AVC от AVP Studio] AVP Studio Скачать
4 | 0


>> Регистрируемся здесь <<






Отзывы и комментарии о схеме читаем и пишем здесь: ---> Отзывы и комментарии о схеме

Новые благодарочки в телеграм довольных пользователей:
скриншот   скриншот   скриншот   скриншот   скриншот
    Дорогой пользователь! Огромная просьба, поблагодарите релизера, оцените раздачу и оставьте свои комментарий, если Вы скачали Порожний рейс через торрент бесплатно! Внесите свою лепту в развитие PiratBit!
    Комментировать посты могут только пользователи прошедшие не сложную регистрацию
    Показать сообщения:    

    Порожний рейс через торрент
    Скачать бесплатно Порожний рейс
    Порожний рейс скачать торрент
    Порожний рейс смотреть онлайн
    Cкачать фильм Порожний рейс бесплатно
    Порожний рейс скачать торрент в хорошем качестве
    Порожний рейс смотреть онлайн бесплатно в хорошем качестве


    Вы не можете начинать темы
    Вы не можете отвечать на сообщения
    Вы не можете редактировать свои сообщения
    Вы не можете удалять свои сообщения
    Вы не можете голосовать в опросах
    Вы не можете прикреплять файлы к сообщениям
    Вы можете скачивать файлы