Доктор Стрэндж

Лицензия

Добыча

Дубляж

Дом дракона

1 сезон

Тор

Дубляж

В эфире

Дубляж

Там, где раки поют

MVO

Властелин колец

1 сезон

GLOBAL

pack

Рекомендуем

30

Пиратка

ВАЖНО

ВАЖНО

Ghostwire

Пиратка

jed

RePack

nioh2

RePack

RDR2

RePack

NEED FOR SPEED™ PAYBACK

RePack

скачать торрент

Кинопоиск HD

Острые козырьки 6 сезон

6 сезон

FAR CRY 6

RePack

скачать торрент

Лицензия

скачать торрент

MVO

1

1 сезон

скачать торрент

1 сезон

скачать торрент

Лицензия

  

Инкассатор / Armored (Нимрод Антал / Nimród Antal) [2009, боевик, триллер, криминал, DVB-AVC] [Open Matte] [MVO] (R5)

Инкассатор через торрент pb.wtf

Размер: 1.36 GB | Добавлен: 3 года 5 мес. назад | Торрент скачан:33 раза
Смотреть онлайн | Скачать   

29-06-2019 10:37 Инкассатор Скачать торрент  

Инкассатор
Armored
Страна: США
Жанр: боевик, триллер, криминал
Продолжительность: 01:20:02
Год выпуска: 2009
Перевод: Профессиональный (многоголосый закадровый)
Субтитры: отсутствуют

Режиссёр: Нимрод Антал: Nimród Antal
В ролях: Мэтт Диллон, Жан Рено, Лоренс Фишбёрн, Амори Ноласко, Майло Вентимилья, Скит Ульрих, Фред Уорд, Коламбус Шорт, Андре Кинни, Эндрю Фисцелла.
Описание: Ветеран боевых действий Тай Хэккет возвращается домой после службы в Ираке. В поисках средств к существованию и желания должной заботы о своём младшем брате, Тай вынужден перебиваться с работы на работу.
Однажды он поступает на инкассаторскую службу, где от старого друга семьи Майка получает, казалось бы, выгодное предложение, — обокрасть свой же эскорт с деньгами, когда будет перевозиться особо крупная сумма денег. Колеблясь, и не зная, как вести себя в этой ситуации, Хэккет всё же соглашается на операцию, после того, как органы опеки делают попытки забрать его брата в приют под предлогом «лучшей заботы о мальчике».
Всё же согласившись на преступление, честный и справедливый солдат идёт на компромисс — никаких жертв, никаких трупов. Когда же всё пошло не так, Тай Хэккет встаёт по ту сторону «своих», любой ценой предотвращая идеально спланированную кражу денег и исключая появление всё новых жертв. Один против нескольких, — сможет ли он победить? Борьба не на жизнь, а на смерть начинается…



Качество: DVB-AVC [НТК]
Формат: MKV
Видео: AVC, 720x576 @ 1044x576 (16:9), 25 fps, ~1977 kbps, 0.182 bit/pixel
Аудио #1: [RUS] 48 kHz, AC3, 2 ch, 224 kbps
Аудио #2: [ENG] 48 kHz, AC3, 2 ch, 224 kbps
General
Unique ID : 67351728726468397248628951823591277174 (0x32AB789B0FD17AB80DF34B6E94FE0276)
Complete name : H:\Раздачи\Inkassator.2009.DVB.Open.Matte.mkv
Format : Matroska
Format version : Version 4
File size : 1.36 GiB
Duration : 1 h 20 min
Overall bit rate : 2 429 kb/s
Encoded date : UTC 2019-03-30 09:29:24
Writing application : mkvmerge v32.0.0 ('Astral Progressions') 32-bit
Writing library : libebml v1.3.7 + libmatroska v1.5.0

Video
ID : 1
Format : AVC
Format/Info : Advanced Video Codec
Format profile : [email protected]
Format settings : CABAC / 3 Ref Frames
Format settings, CABAC : Yes
Format settings, ReFrames : 3 frames
Format settings, GOP : M=4, N=24
Codec ID : V_MPEG4/ISO/AVC
Duration : 1 h 20 min
Bit rate : 1 977 kb/s
Width : 720 pixels
Height : 576 pixels
Display aspect ratio : 16:9
Frame rate mode : Variable
Frame rate : 26.127 FPS
Original frame rate : 25.000 FPS
Standard : Component
Color space : YUV
Chroma subsampling : 4:2:0
Bit depth : 8 bits
Scan type : Interlaced
Scan type, store method : Separated fields
Scan order : Top Field First
Bits/(Pixel*Frame) : 0.182
Stream size : 1.11 GiB (81%)
Default : Yes
Forced : No
Color range : Limited
Color primaries : BT.601 PAL
Transfer characteristics : BT.470 System B/G
Matrix coefficients : BT.470 System B/G

Audio #1
ID : 2
Format : AC-3
Format/Info : Audio Coding 3
Commercial name : Dolby Digital
Codec ID : A_AC3
Duration : 1 h 20 min
Bit rate mode : Constant
Bit rate : 224 kb/s
Channel(s) : 2 channels
Channel layout : L R
Sampling rate : 48.0 kHz
Frame rate : 31.250 FPS (1536 SPF)
Bit depth : 16 bits
Compression mode : Lossy
Stream size : 128 MiB (9%)
Service kind : Complete Main
Default : Yes
Forced : No

Audio #2
ID : 3
Format : AC-3
Format/Info : Audio Coding 3
Commercial name : Dolby Digital
Codec ID : A_AC3
Duration : 1 h 20 min
Bit rate mode : Constant
Bit rate : 224 kb/s
Channel(s) : 2 channels
Channel layout : L R
Sampling rate : 48.0 kHz
Frame rate : 31.250 FPS (1536 SPF)
Bit depth : 16 bits
Compression mode : Lossy
Stream size : 128 MiB (9%)
Service kind : Complete Main
Default : No
Forced : No
скриншот  скриншот  скриншот  



Скачать Инкассатор через торрент https://i110.fastpic.ru/big/2019/0330/82/59e15654e271ec525a99cf75cb328e82.jpg Скачать, смотреть онлайн Инкассатор бесплантно в хорошем качестве Описание: Ветеран боевых действий Тай Хэккет возвращается домой после службы в Ираке. В поисках средств к существованию и желания должной ... 10 10 5
Торрент: Зарегистрирован [2019-06-29 10:37] · скачан: 33 раз
Статус: √ проверено
Размер: 1.36 GB
Как cкачать? Как скачать Инкассатор через торрент | UTorrent

28-11-2019 20:33  


Отключить вcю реклaмy на сайте, в т.ч. и в плеере онлайн просмотра!

    Дорогой пользователь! Огромная просьба, поблагодарите релизера, оцените раздачу и оставьте свои комментарий, если Вы скачали Инкассатор через торрент бесплатно!!
    Комментировать посты могут только пользователи прошедшие не сложную регистрацию
    Показать сообщения:    


    Инкассатор через торрент
    Скачать бесплатно Инкассатор
    Инкассатор скачать торрент
    Инкассатор смотреть онлайн
    Cкачать фильм Инкассатор бесплатно
    Инкассатор скачать торрент в хорошем качестве
    Инкассатор смотреть онлайн бесплатно в хорошем качестве
    Вы не можете начинать темы
    Вы не можете отвечать на сообщения
    Вы не можете редактировать свои сообщения
    Вы не можете удалять свои сообщения
    Вы не можете голосовать в опросах
    Вы не можете прикреплять файлы к сообщениям
    Вы можете скачивать файлы
    Инкассатор / Armored [2009, боевик, триллер, криминал, DVB-AVC] [Open Matte] [MVO] смотреть онлайн, скачать торрент picoco.icu