новый адрес
Ссылка на приватное зеркало всего за 1$. Внимание количество ограничено!!!

iTunes

1+1

iTunes

мы

WEB-DL

1

iTunes

Чернобыль

iTunes

Ральф против интернета

Лицензия

ПШазам

Лицензия

Оно 2

Лицензия

30
pack

Вам бонус

ВАЖНО

!!Акция!!

Alien_RageХит недели

RePack

Resident Evil 21

ИГРА 18+

pack

RePack

jed

!!Акция!!

Alien_Rage

RePack

fifa19

RePack

Assassins Creed: Odyssey

RePack

NEED FOR SPEED™ PAYBACK

3 сезон

9 сезон

Бесстыжие 9 сезон

Все сериалы

все сериалы на PB.wtf

RePack

FAR CRY 5
Ребята, катастрофически не хватает 1900р. для оплаты серверов за Октябрь (всвязи с блокировками трафик упал в 3 раза), 1-2р., выручайте.
  

Город лжи / City of Lies (Брэд Фурман / Brad Furman) [2018, триллер, драма, криминал, BDRip-AVC] MVO [СВ Студия] pb.wtf

Город лжи через торрент pb.wtf

Раздают: 31 [ 0 KB/s ]
Размер: 2.18 GB | Добавлен: 5 мес. 8 д. назад | Торрент скачан:302 раза
Скачать  

29-06-2019 15:37 Город лжи Скачать торрент  

Город лжи
City of Lies

«Кто убил Бигги?»

Страна: Великобритания, США
Жанр: триллер, драма, криминал, детектив, биография
Год выпуска: 2018
Продолжительность: 01:52:17

Перевод: Профессиональный (многоголосый, закадровый) [СВ Студия]
Субтитры: нет
Оригинальная аудиодорожка: английский

Режиссер: Брэд Фурман / Brad Furman

В ролях: Джонни Депп, Форест Уитакер, Тоби Хасс, Дэйтон Калли, Нил Браун мл., Луис Хертэм, Шей Уигэм, Ксандер Беркли, Мелани Бенц, Шамир Андерсон, Лоуренс Мэйсон, Кристиан Джордж

Описание: 7 сентября 1996 года был смертельно ранен рэпер Тупак Шакур, через полгода был застрелен главный подозреваемый в его убийстве - хип-хоп-звезда Бигги Смолз. Преступники не были найдены, дело о «рэперской войне побережий» было закрыто. Спустя годы опальный детектив Рассел Пул возвращается к расследованию и вместе с репортером Джексоном распутывает паутину немыслимого заговора, в котором, очевидно, замешана полиция Лас-Вегаса.



Релиз:

Автор рипа: stalkerok

Сэмпл

Качество видео: BDRip-AVC | Исходник: City.of.Lies.2018.BluRay.Remux.AVC.DTS-HD.MA.5.1-iFT
Формат видео: MKV
Видео кодек: AVC
Аудио кодек: AC3, AAC
Видео: AVC, 2011 Кбит/сек, 1152x482 (2.40:1), 24 кадр/сек
Аудио №1: AC3, 448 Кбит/сек, 48 КГц, 5.1 - русский
Аудио №2: AAC, 320 Кбит/сек, 48 КГц, 5.1 - английский
Навигация по главам: есть
---[Information] [29.06.2019 18:03:47] x264 [info]: frame I:1142 Avg QP:14.73 size: 51828
---[Information] [29.06.2019 18:03:47] x264 [info]: frame P:33755 Avg QP:16.47 size: 21606
---[Information] [29.06.2019 18:03:47] x264 [info]: frame B:126795 Avg QP:18.25 size: 7142

General
Unique ID : 264684576906502706092400418452121816614 (0xC720652EFBEBDF10899FBE84D36B8E26)
Complete name : C:\temp\City of Lies\City.of.Lies.2018.BDRip.x264.Rus.Eng.stalkerok.New-Team.mkv
Format : Matroska
Format version : Version 4
File size : 2.18 GiB
Duration : 1 h 52 min
Overall bit rate : 2 782 kb/s
Movie name : City of Lies (2018) | Rip by stalkerok
Encoded date : UTC 2019-06-29 15:19:29
Writing application : mkvmerge v33.1.0 ('Primrose') 64-bit
Writing library : libebml v1.3.7 + libmatroska v1.5.0

Video
ID : 1
Format : AVC
Format/Info : Advanced Video Codec
Format profile : High@L4.1
Format settings : CABAC / 12 Ref Frames
Format settings, CABAC : Yes
Format settings, RefFrames : 12 frames
Codec ID : V_MPEG4/ISO/AVC
Duration : 1 h 52 min
Bit rate : 2 012 kb/s
Width : 1 152 pixels
Height : 482 pixels
Display aspect ratio : 2.40:1
Frame rate mode : Constant
Frame rate : 24.000 FPS
Color space : YUV
Chroma subsampling : 4:2:0
Bit depth : 8 bits
Scan type : Progressive
Bits/(Pixel*Frame) : 0.151
Stream size : 1.58 GiB (72%)
Title : City of Lies (2018) | Rip by stalkerok
Writing library : x264 core 157 r2945 72db437
Encoding settings : cabac=1 / ref=12 / deblock=1:-3:-2 / analyse=0x3:0x133 / me=umh / subme=10 / psy=1 / psy_rd=1.00:0.00 / mixed_ref=1 / me_range=32 / chroma_me=1 / trellis=2 / 8x8dct=1 / cqm=0 / deadzone=21,11 / fast_pskip=0 / chroma_qp_offset=-2 / threads=12 / lookahead_threads=3 / sliced_threads=0 / nr=0 / decimate=1 / interlaced=0 / bluray_compat=0 / constrained_intra=0 / bframes=13 / b_pyramid=2 / b_adapt=2 / b_bias=0 / direct=3 / weightb=1 / open_gop=0 / weightp=2 / keyint=240 / keyint_min=23 / scenecut=40 / intra_refresh=0 / rc_lookahead=60 / rc=crf / mbtree=0 / crf=18.0 / qcomp=0.65 / qpmin=0 / qpmax=69 / qpstep=4 / vbv_maxrate=50000 / vbv_bufsize=62500 / crf_max=0.0 / nal_hrd=none / filler=0 / ip_ratio=1.40 / pb_ratio=1.30 / aq=3:0.80 / zones=150158,161691,q=30
Default : Yes
Forced : No

Audio #1
ID : 2
Format : AC-3
Format/Info : Audio Coding 3
Commercial name : Dolby Digital
Codec ID : A_AC3
Duration : 1 h 52 min
Bit rate mode : Constant
Bit rate : 448 kb/s
Channel(s) : 6 channels
Channel layout : L R C LFE Ls Rs
Sampling rate : 48.0 kHz
Frame rate : 31.250 FPS (1536 SPF)
Bit depth : 16 bits
Compression mode : Lossy
Stream size : 360 MiB (16%)
Language : Russian
Service kind : Complete Main
Default : Yes
Forced : No

Audio #2
ID : 3
Format : AAC LC
Format/Info : Advanced Audio Codec Low Complexity
Codec ID : A_AAC-2
Duration : 1 h 52 min
Bit rate : 320 kb/s
Channel(s) : 6 channels
Channel layout : C L R Ls Rs LFE
Sampling rate : 48.0 kHz
Frame rate : 46.875 FPS (1024 SPF)
Compression mode : Lossy
Delay relative to video : 9 ms
Stream size : 257 MiB (11%)
Language : English
Default : No
Forced : No

Menu
00:00:00.000 : en:Chapter 01
00:05:23.083 : en:Chapter 02
00:10:00.208 : en:Chapter 03
00:16:00.625 : en:Chapter 04
00:22:14.208 : en:Chapter 05
00:27:25.542 : en:Chapter 06
00:33:04.875 : en:Chapter 07
00:38:14.750 : en:Chapter 08
00:43:31.083 : en:Chapter 09
00:49:31.458 : en:Chapter 10
00:55:02.833 : en:Chapter 11
01:00:54.167 : en:Chapter 12
01:07:40.792 : en:Chapter 13
01:12:40.792 : en:Chapter 14
01:17:49.292 : en:Chapter 15
01:21:38.500 : en:Chapter 16
01:27:32.875 : en:Chapter 17
01:32:16.250 : en:Chapter 18
01:38:06.667 : en:Chapter 19
01:43:18.833 : en:Chapter 20
pb.wtf



Скачать Город лжи через торрент http://i6.imageban.ru/out/2017/09/18/2ff75c0c358795c5946784cc1680714d.png Скачать фильм Город лжи через торрент бесплантно в хорошем качестве Описание: 7 сентября 1996 года был смертельно ранен рэпер Тупак Шакур, через полгода был застрелен главный подозреваемый в его убийстве - ... 10 10 6
Info! Золотая раздача, скачанное не засчитывается.
Торрент: Зарегистрирован [2019-06-29 15:37] · скачан: 302 раз
Статус: √ проверено
Размер: 2.18 GB
Как cкачать? Как скачать Город лжи через торрент | qTorrent

% Раздел Тема Автор DL S | L
Фильмы 2019 [DVDrip, WEB-DLRip, HDrip] (DUB, MVO) [ 2.26 GB ] Город лжи / City of Lies [2019 биография BDRip-AVC] 2xMVO [СВ Студия HDRezka Studio] bober100 Скачать
3 | 0
Фильмы [HD 720p, 1080p] (Хороший звук DUB, MVO) [ 6.45 GB ] Город лжи / City of Lies [2019 биография BDRip 720p] MVO [СВ Студия] bober100 Скачать
3 | 0
Фильмы 2018 [DVDrip, WEB-DLRip, HDrip] (DUB, MVO) [ 745 MB ] Город лжи / City of Lies [2018 BDRip-AVC] MVO [СВ Студия] sokol_ok Скачать
7 | 3
Фильмы 2018 [DVDrip, WEB-DLRip, HDrip] (DUB, MVO) [ 1.47 GB ] Город лжи / City of Lies [2018 BDRip-AVC] MVO [СВ Студия] sokol_ok Скачать
18 | 0
Фильмы 2019 [DVDrip, WEB-DLRip, HDrip] (DUB, MVO) [ 1.46 GB ] Город лжи / City of Lies [2019 биография BDRip] [MVO] killermax2013 Скачать
1 | 0
Фильмы (Blu-ray, BD-Remux, HDDVD) [ 22.87 GB ] Город лжи / City of Lies [2018 BDRemux 1080p] MVO [СВ Студия] sheker187 Скачать
2 | 0
Фильмы [HD 720p, 1080p] (Хороший звук DUB, MVO) [ 10.55 GB ] Город лжи / City of Lies [2018 BDRip 1080p] MVO [СВ Студия] sheker187 Скачать
4 | 0

28-11-2019 20:33  

Отключить всю рекламу на сайте

    Дорогой пользователь! Огромная просьба, поблагодарите релизера, оцените раздачу и оставьте свои комментарий, если Вы скачали Город лжи через торрент бесплатно! Внесите свою лепту в развитие PiratBit!
    Комментировать посты могут только пользователи прошедшие не сложную регистрацию
    Показать сообщения:    

    Город лжи через торрент
    Скачать бесплатно Город лжи
    Город лжи скачать торрент
    Город лжи смотреть онлайн
    Cкачать фильм Город лжи бесплатно
    Город лжи скачать торрент в хорошем качестве
    Город лжи смотреть онлайн бесплатно в хорошем качестве


    Вы не можете начинать темы
    Вы не можете отвечать на сообщения
    Вы не можете редактировать свои сообщения
    Вы не можете удалять свои сообщения
    Вы не можете голосовать в опросах
    Вы не можете прикреплять файлы к сообщениям
    Вы можете скачивать файлы