Всегда рабочее зеркало без VPN и Proxy просто перед .vidak.icu напиши любое слово или цифру, Пример http://fecw.vidak.icu

Лицензия

MVO

1 сезон

1

1 сезон

iTunes

1 сезон

13

1 сезон

Deluxe

pack

Рекомендуем

Repack

30

ВАЖНО

RePack

MK11

RePack

jed

RePack

fifa19

RePack

RDR2

RePack

NEED FOR SPEED™ PAYBACK

Кинопоиск HD

6 сезон

 Острые козырьки 6 сезон

Все сериалы

все сериалы на PB.wtf

RePack

FAR CRY 5
  
Magnet ссылка

Кладбище домашних животных / Pet Sematary (Кевин Колш , Деннис Уидмайер) [2019, ужасы, триллер, UHD BDRemux 2160p] DUB [Лицензия] + 2xMVO pb.wtf

Кладбище домашних животных через торрент pb.wtf

Размер: 45.25 GB | Добавлен: 3 года 1 мес. назад | Торрент скачан:107 раз
Смотреть онлайн Кладбище домашних животных | Скачать    Ребята, помогите собрать деньги на оплату серверов!!!

30-06-2019 01:32 Кладбище домашних животных Скачать торрент  

Кладбище домашних животных / Pet Sematary««Мёртвые должны оставаться мёртвыми»»

Год выпуска: 2019
Страна: США
Жанр: ужасы, триллер
Продолжительность: 01:40:49
Перевод: Дублированный, профессиональный многоголосый
Субтитры: Русские (Forced, full), английские
Режиссер: Кевин Колш , Деннис Уидмайер
В ролях:

Джейсон Кларк (Louis), Эми Саймец (Rachel), Джон Литгоу (Jud), Жете Лоранс (Ellie), Хьюго Лавуа (Gage), Лукас Лавуа (Gage), Обсса Ахмед (Victor Pascow), Алисса Брук Ливайн (Zelda), Мария Херрера (Marcella), Фрэнк Скорпион (Rachel's Father), Линда Е. Смит (Rachel's Mother), Соня Мария Чирила (Young Rachel)
Описание:
Семья Луиса Крида переезжает в сельский дом, который, как выясняется, расположен по соседству с мрачным Кладбищем домашних животных. Именно здесь по совету соседа Луис хоронит кота Чёрча - любимца семьи, погибшего под колесами грузовика. Вскоре кот возвращается к любящему семейству, но, кажется, это уже не тот ласковый питомец, которого так любила дочь Луиса.
Рейтинг:

MPAA: R - Лицам до 17 лет обязательно присутствие взрослого
Качество: UHD BDRemux 2160p
Формат: MKV
Видео: 3840x2160 at 23.976 fps, MPEG-H HEVC HDR Video, 58900 kbps avg
Аудио #01: 48 kHz, AC3, 5.1, 640 Kbps | Лицензия | RUS |
Аудио #02: 48 kHz, AC3, 2.0, 192 Kbps | HDRezka Studio | RUS |
Аудио #03: 48 kHz, AC3, 2.0, 192 Kbps | СВ Студия | RUS |
Аудио #04: 48 kHz, TrueHD, 7.1, 3588 Kbps | Оригинал | ENG |
Аудио #05: 48 kHz, AC3, 5.1, 640 Kbps | Оригинал | ENG |
Навигация по главам: есть

General
Unique ID : 96007879113060864253215499630116258484 (0x483A71E6CEC2B790075F544D4422C2B4)
Complete name : D:Video111Pet.Sematary.2019.BDREMUX.2160p.HDR.seleZen.mkv
Format : Matroska
Format version : Version 4
File size : 45.2 GiB
Duration : 1 h 40 min
Overall bit rate mode : Variable
Overall bit rate : 64.2 Mb/s
Movie name : Pet Sematary 2019 UHD from селезень
Encoded date : UTC 2019-06-30 00:17:03
Writing application : mkvmerge v35.0.0 ('All The Love In The World') 64-bit
Writing library : libebml v1.3.9 + libmatroska v1.5.2

Video
ID : 1
Format : HEVC
Format/Info : High Efficiency Video Coding
Format profile : Main [email protected]@High
HDR format : SMPTE ST 2086, HDR10 compatible
Codec ID : V_MPEGH/ISO/HEVC
Duration : 1 h 40 min
Bit rate : 58.9 Mb/s
Width : 3 840 pixels
Height : 2 160 pixels
Display aspect ratio : 16:9
Frame rate mode : Constant
Frame rate : 23.976 (24000/1001) FPS
Color space : YUV
Chroma subsampling : 4:2:0 (Type 2)
Bit depth : 10 bits
Bits/(Pixel*Frame) : 0.296
Stream size : 41.5 GiB (92%)
Language : English
Default : Yes
Forced : No
Color range : Limited
Color primaries : BT.2020
Transfer characteristics : PQ
Matrix coefficients : BT.2020 non-constant
Mastering display color pri : Display P3
Mastering display luminance : min: 0.0001 cd/m2, max: 1000 cd/m2

Audio #1
ID : 2
Format : AC-3
Format/Info : Audio Coding 3
Commercial name : Dolby Digital
Codec ID : A_AC3
Duration : 1 h 40 min
Bit rate mode : Constant
Bit rate : 640 kb/s
Channel(s) : 6 channels
Channel layout : L R C LFE Ls Rs
Sampling rate : 48.0 kHz
Frame rate : 31.250 FPS (1536 SPF)
Bit depth : 16 bits
Compression mode : Lossy
Stream size : 461 MiB (1%)
Title : Dub [License]
Language : Russian
Service kind : Complete Main
Default : Yes
Forced : Yes

Audio #2
ID : 3
Format : AC-3
Format/Info : Audio Coding 3
Commercial name : Dolby Digital
Codec ID : A_AC3
Duration : 1 h 40 min
Bit rate mode : Constant
Bit rate : 192 kb/s
Channel(s) : 2 channels
Channel layout : L R
Sampling rate : 48.0 kHz
Frame rate : 31.250 FPS (1536 SPF)
Bit depth : 16 bits
Compression mode : Lossy
Stream size : 138 MiB (0%)
Title : MVO [HDRezka Studio]
Language : Russian
Service kind : Complete Main
Default : No
Forced : No

Audio #3
ID : 4
Format : AC-3
Format/Info : Audio Coding 3
Commercial name : Dolby Digital
Codec ID : A_AC3
Duration : 1 h 40 min
Bit rate mode : Constant
Bit rate : 192 kb/s
Channel(s) : 2 channels
Channel layout : L R
Sampling rate : 48.0 kHz
Frame rate : 31.250 FPS (1536 SPF)
Bit depth : 16 bits
Compression mode : Lossy
Stream size : 138 MiB (0%)
Title : MVO [СВ Студия]
Language : Russian
Service kind : Complete Main
Default : No
Forced : No

Audio #4
ID : 5
Format : MLP FBA 16-ch
Format/Info : Meridian Lossless Packing FBA with 16-channel presentation
Commercial name : Dolby TrueHD with Dolby Atmos
Codec ID : A_TRUEHD
Duration : 1 h 40 min
Bit rate mode : Variable
Bit rate : 3 588 kb/s
Maximum bit rate : 7 608 kb/s
Channel(s) : 8 channels
Channel layout : L R C LFE Ls Rs Lb Rb
Sampling rate : 48.0 kHz
Frame rate : 1 200.000 FPS (40 SPF)
Compression mode : Lossless
Stream size : 2.53 GiB (6%)
Title : Original
Language : English
Default : No
Forced : No
Number of dynamic objects : 11
Bed channel count : 1 channel
Bed channel configuration : LFE

Audio #5
ID : 6
Format : AC-3
Format/Info : Audio Coding 3
Commercial name : Dolby Digital
Codec ID : A_AC3
Duration : 1 h 40 min
Bit rate mode : Constant
Bit rate : 640 kb/s
Channel(s) : 6 channels
Channel layout : L R C LFE Ls Rs
Sampling rate : 48.0 kHz
Frame rate : 31.250 FPS (1536 SPF)
Bit depth : 16 bits
Compression mode : Lossy
Stream size : 461 MiB (1%)
Language : English
Service kind : Complete Main
Default : No
Forced : No

Text #1
ID : 7
Format : UTF-8
Codec ID : S_TEXT/UTF8
Codec ID/Info : UTF-8 Plain Text
Duration : 1 h 14 min
Bit rate : 1 b/s
Count of elements : 15
Stream size : 732 Bytes (0%)
Title : Forced
Language : Russian
Default : Yes
Forced : Yes

Text #2
ID : 8
Format : UTF-8
Codec ID : S_TEXT/UTF8
Codec ID/Info : UTF-8 Plain Text
Duration : 1 h 40 min
Bit rate : 50 b/s
Count of elements : 869
Stream size : 37.2 KiB (0%)
Title : Full
Language : Russian
Default : No
Forced : No

Text #3
ID : 9
Format : UTF-8
Codec ID : S_TEXT/UTF8
Codec ID/Info : UTF-8 Plain Text
Duration : 1 h 32 min
Bit rate : 36 b/s
Count of elements : 856
Stream size : 24.6 KiB (0%)
Title : Full
Language : English
Default : No
Forced : No

Text #4
ID : 10
Format : UTF-8
Codec ID : S_TEXT/UTF8
Codec ID/Info : UTF-8 Plain Text
Duration : 1 h 36 min
Bit rate : 45 b/s
Count of elements : 1211
Stream size : 32.1 KiB (0%)
Title : SDH
Language : English
Default : No
Forced : No

Menu
00:00:00.000 : en:Chapter 01
00:07:16.353 : en:Chapter 02
00:12:14.025 : en:Chapter 03
00:19:38.386 : en:Chapter 04
00:25:30.070 : en:Chapter 05
00:30:09.725 : en:Chapter 06
00:35:18.325 : en:Chapter 07
00:46:02.843 : en:Chapter 08
00:50:44.792 : en:Chapter 09
00:57:47.964 : en:Chapter 10
01:06:57.722 : en:Chapter 11
01:14:12.573 : en:Chapter 12
01:22:52.009 : en:Chapter 13
01:32:19.909 : en:Chapter 14
01:36:41.295 : en:Chapter 15
pb.wtf



Скачать Кладбище домашних животных через торрент https://b.radikal.ru/b40/1906/b6/51ec2e4c255b.png Скачать, смотреть онлайн Кладбище домашних животных бесплантно в хорошем качестве Описание: Семья Луиса Крида переезжает в сельский дом, который, как выясняется, расположен по соседству с мрачным Кладбищем домашних ... 10 10 6
Info! Золотая раздача, скачанное не засчитывается.
Торрент: Зарегистрирован [2019-06-30 01:32] · скачан: 107 раз
Статус: √ проверено
Размер: 45.25 GB
Как cкачать? Как скачать Кладбище домашних животных через торрент | UTorrent

% Раздел Тема Автор DL S | L
Фильмы [HD 720p, 1080p] (Хороший звук DUB, MVO) [ 14.39 GB ] Кладбище домашних животных / Pet Sematary [2019 BDRip 1080p] DUB [] + 2xMVO sheker187 Скачать
1 | 0
Фильмы 2019-2020 [DVDrip, WEB-DLRip, HDrip] (DUB, MVO) [ 2.19 GB ] Кладбище домашних животных / Pet Sematary [2019 BDRip-AVC] DUB [] + 2xMVO sheker187 Скачать
1 | 0
Фильмы (Blu-ray, BD-Remux, HDDVD) [ 22.63 GB ] Кладбище домашних животных / Pet Sematary [2019 BDRemux 1080p] DUB [] + 2xMVO sheker187 Скачать
1 | 0
Ultra HD (UHD: 2K, 4K, 8K) — видео сверхвысокой чёткости [ 31.51 GB ] Кладбище домашних животных / Pet Sematary [2019 UHD BDRip 2160p] [SDR] DUB [] + 2xMVO sheker187 Скачать
1 | 0
Ultra HD (UHD: 2K, 4K, 8K) — видео сверхвысокой чёткости [ 16.81 GB ] Кладбище домашних животных / Pet Sematary [2019 UHD BDRip 2160p] DUB [] + 2xMVO sheker187 Скачать
1 | 0
Фильмы [HD 720p, 1080p] (Хороший звук DUB, MVO) [ 5.04 GB ] Кладбище домашних животных / Pet Sematary [2019 BDRip 720p] DUB [] + 2xMVO sheker187 Скачать
1 | 0
Ultra HD (UHD: 2K, 4K, 8K) — видео сверхвысокой чёткости [ 55.06 GB ] Кладбище домашних животных / Pet Sematary [1989 UHD BDRemux 2160p] 3xMVO + 2xDVO + 4xAVO sheker187 Скачать
1 | 0

28-11-2019 20:33  

Отключить вcю реклaмy на сайте

    Дорогой пользователь! Огромная просьба, поблагодарите релизера, оцените раздачу и оставьте свои комментарий, если Вы скачали Кладбище домашних животных через торрент бесплатно!
    Комментировать посты могут только пользователи прошедшие не сложную регистрацию
    Показать сообщения:    

    Кладбище домашних животных через торрент
    Скачать бесплатно Кладбище домашних животных
    Кладбище домашних животных скачать торрент
    Кладбище домашних животных смотреть онлайн
    Cкачать фильм Кладбище домашних животных бесплатно
    Кладбище домашних животных скачать торрент в хорошем качестве
    Кладбище домашних животных смотреть онлайн бесплатно в хорошем качестве


    Вы не можете начинать темы
    Вы не можете отвечать на сообщения
    Вы не можете редактировать свои сообщения
    Вы не можете удалять свои сообщения
    Вы не можете голосовать в опросах
    Вы не можете прикреплять файлы к сообщениям
    Вы можете скачивать файлы