Ссылка на приватное зеркало нашего сайта всего за 1$. Внимание количество ограничено!!!

2 сезон

iTunes

1 сезон

1

2 сезон

2 сезон

iTunes

1 сезон

RePack

30

Ultimate

ВАЖНО

ИГРА 18+

pack

RePack

MK11
pack

Забери бонус

RePack

jed

!!Акция!!

Alien_Rage

RePack

fifa19

RePack

Assassins Creed: Odyssey

RePack

NEED FOR SPEED™ PAYBACK

4 сезон

9 сезон

Бесстыжие 9 сезон

Все сериалы

все сериалы на PB.wtf

RePack

FAR CRY 5
  

Жар пустыни / Slow Burn (Кристиан Форд / Christian Ford) [1999, триллер, WEB-DL 720p от KORSAR] [DVO] pb.wtf

Жар пустыни через торрент pb.wtf

Размер: 9.71 GB | Добавлен: 1 год 4 мес. назад | Торрент скачан:8 раз
Скачать  

30-06-2019 17:03 Жар пустыни Скачать торрент  

Жар пустыни / Slow Burn

Страна: США
Жанр: триллер
Год выпуска: 1999
Продолжительность: 01:37:02

Перевод: Профессиональный (двухголосый закадровый) Екатеринбург Арт
Субтитры: английские
Оригинальная аудиодорожка: английский

Режиссер: Кристиан Форд / Christian Ford

В ролях: Дженнифер Энн Эванс, Стюарт Уилсон, Николь Феллоуз, Каприс Бенедетти, Крис Малки, Минни Драйвер, Джеймс Спэйдер, Джош Бролин.

Описание: С самого детства Трина вместе с родителями безуспешно искала в знойной мексиканской пустыне утерянные много лет назад бриллианты. Но драгоценности, которые не могли найти три поколения семьи Трины, оказались легкой добычей двух беглых преступников.
Встретив Трину, упрямо продолжающую свои поиски, Маркус и Дастер берут ее в заложницы и требуют отвезти их к мексиканской границе. Машина вскоре ломается, воды остается совсем мало, и все трое оказываются пленниками пышущей жаром пустыни.
Теперь они — невольные партнеры, вместе борющиеся за свою жизнь, но готовые в любой момент предать друг друга…

Релиз от:

Тип релиза: WEB-DL 1080p
Контейнер: MKV

Видео: MPEG-4 AVC, 13,6 Мбит/сек, 1920x1080, 23,976 кадра/сек
Аудио 1: AC3, 2 ch, 192 Кбит/сек | Русский, профессиональный (двухголосый закадровый) Екатеринбург Арт
Аудио 2: EAC3, 2 ch, 224 Кбит/сек | Английский, оригинал

Общее
Уникальный идентификатор : 221213260481100184611639465567114353281 (0xA66C1FCE8F68EB94849C7CD9E89DDA81)
Полное имя : Жар.пустыни.2000.WEB-DL.1080p.mkv
Формат : Matroska
Версия формата : Version 2
Размер файла : 9,71 Гбайт
Продолжительность : 1 ч. 37 м.
Режим общего битрейта : Переменный
Общий поток : 14,3 Мбит/сек
Дата кодирования : UTC 2018-04-14 09:52:35
Программа кодирования : mkvmerge v5.8.0 ('No Sleep / Pillow') built on Sep 2 2012 15:37:04
Библиотека кодирования : libebml v1.2.3 + libmatroska v1.3.0

Видео
Идентификатор : 1
Формат : AVC
Формат/Информация : Advanced Video Codec
Профиль формата : High@L4
Настройки формата : CABAC / 4 Ref Frames
Параметр CABAC формата : Да
Параметр RefFrames формата : 4 кадра
Идентификатор кодека : V_MPEG4/ISO/AVC
Продолжительность : 1 ч. 37 м.
Вид битрейта : Переменный
Битрейт : 13,6 Мбит/сек
Максимальный битрейт : 15,0 Мбит/сек
Ширина : 1920 пикселей
Высота : 1080 пикселей
Соотношение сторон : 16:9
Режим частоты кадров : Постоянный
Частота кадров : 23,976 (24000/1001) кадра/сек
Цветовое пространство : YUV
Субдискретизация насыщенности : 4:2:0
Битовая глубина : 8 бит
Тип развёртки : Прогрессивная
Бит/(Пиксели*Кадры) : 0.274
Размер потока : 9,24 Гбайт (95%)
Библиотека кодирования : x264 core 148 r2623 d5b2374
Настройки программы : cabac=1 / ref=4 / deblock=1:-1:-1 / analyse=0x3:0x133 / me=umh / subme=9 / psy=1 / psy_rd=1.00:0.15 / mixed_ref=1 / me_range=24 / chroma_me=1 / trellis=2 / 8x8dct=1 / cqm=0 / deadzone=21,11 / fast_pskip=1 / chroma_qp_offset=-3 / threads=34 / lookahead_threads=5 / sliced_threads=0 / nr=150 / decimate=1 / interlaced=0 / bluray_compat=0 / constrained_intra=0 / bframes=8 / b_pyramid=2 / b_adapt=2 / b_bias=0 / direct=3 / weightb=1 / open_gop=0 / weightp=2 / keyint=120 / keyint_min=61 / scenecut=0 / intra_refresh=0 / rc_lookahead=120 / rc=crf / mbtree=1 / crf=18.0 / qcomp=0.60 / qpmin=0 / qpmax=69 / qpstep=4 / vbv_maxrate=15000 / vbv_bufsize=31250 / crf_max=0.0 / nal_hrd=vbr / filler=0 / ip_ratio=1.40 / aq=3:1.00
Язык : English
Default : Да
Forced : Нет
Цветовой диапазон : Limited
Основные цвета : BT.709
Характеристики трансфера : BT.709
Коэффициенты матрицы : BT.709

Аудио #1
Идентификатор : 2
Формат : AC-3
Формат/Информация : Audio Coding 3
Идентификатор кодека : A_AC3
Продолжительность : 1 ч. 37 м.
Вид битрейта : Постоянный
Битрейт : 192 Кбит/сек
Каналы : 2 канала
Расположение каналов : Front: L R
Частота : 48,0 КГц
Частота кадров : 31,250 кадров/сек (1536 SPF)
Битовая глубина : 16 бит
Метод сжатия : С потерями
Размер потока : 133 Мбайт (1%)
Заголовок : DVO | Екатеринбург Арт
Язык : Russian
По умолчанию : Да
Принудительно : Нет

Аудио #2
Идентификатор : 3
Формат : E-AC-3
Формат/Информация : Enhanced Audio Coding 3
Идентификатор кодека : A_EAC3
Продолжительность : 1 ч. 37 м.
Вид битрейта : Постоянный
Битрейт : 224 Кбит/сек
Каналы : 2 канала
Расположение каналов : Front: L R
Частота : 48,0 КГц
Частота кадров : 187,500 кадров/сек (256 SPF)
Метод сжатия : С потерями
Размер потока : 155 Мбайт (2%)
Заголовок : Original
Язык : English
По умолчанию : Нет
Принудительно : Нет

Текст
Идентификатор : 4
Формат : UTF-8
Идентификатор кодека : S_TEXT/UTF8
Идентификатор кодека/Информация : UTF-8 Plain Text
Язык : English
По умолчанию : Нет
Принудительно : Нет

Меню
00:00:00.000 : en:Chapter 1
00:08:03.000 : en:Chapter 2
00:15:51.000 : en:Chapter 3
00:22:32.000 : en:Chapter 4
00:30:00.000 : en:Chapter 5
00:40:10.000 : en:Chapter 6
00:47:33.000 : en:Chapter 7
00:54:29.000 : en:Chapter 8
01:03:05.000 : en:Chapter 9
01:12:55.000 : en:Chapter 10
01:21:29.000 : en:Chapter 11
01:29:56.000 : en:Chapter 12
скриншот   скриншот   скриншот   скриншот  
pb.wtf



Скачать Жар пустыни через торрент https://a.radikal.ru/a36/1906/89/04e003d0eadf.png Скачать фильм Жар пустыни через торрент бесплантно в хорошем качестве Описание: С самого детства Трина вместе с родителями безуспешно искала в знойной мексиканской пустыне утерянные много лет назад бриллианты. ... 5 10 1
Торрент: Зарегистрирован [2019-06-30 17:03] · скачан: 8 раз
Статус: √ проверено
Размер: 9.71 GB
Как cкачать? Как скачать Жар пустыни через торрент | qTorrent

28-11-2019 20:33  

Отключить всю рекламу на сайте

    Дорогой пользователь! Огромная просьба, поблагодарите релизера, оцените раздачу и оставьте свои комментарий, если Вы скачали Жар пустыни через торрент бесплатно! Внесите свою лепту в развитие PiratBit!
    Комментировать посты могут только пользователи прошедшие не сложную регистрацию
    Показать сообщения:    

    Жар пустыни через торрент
    Скачать бесплатно Жар пустыни
    Жар пустыни скачать торрент
    Жар пустыни смотреть онлайн
    Cкачать фильм Жар пустыни бесплатно
    Жар пустыни скачать торрент в хорошем качестве
    Жар пустыни смотреть онлайн бесплатно в хорошем качестве


    Вы не можете начинать темы
    Вы не можете отвечать на сообщения
    Вы не можете редактировать свои сообщения
    Вы не можете удалять свои сообщения
    Вы не можете голосовать в опросах
    Вы не можете прикреплять файлы к сообщениям
    Вы можете скачивать файлы