Ссылка на приватное зеркало нашего сайта всего за 1$. Внимание количество ограничено!!!

2 сезон

iTunes

1 сезон

1

2 сезон

2 сезон

iTunes

1 сезон

RePack

30

Новинка

ВАЖНО

ИГРА 18+

pack

RePack

MK11
pack

Забери бонус

RePack

jed

!!Акция!!

Alien_Rage

RePack

fifa19

RePack

Assassins Creed: Odyssey

RePack

NEED FOR SPEED™ PAYBACK

4 сезон

9 сезон

Бесстыжие 9 сезон

Все сериалы

все сериалы на PB.wtf

RePack

FAR CRY 5
  

Спасатели Малибу / Baywatch / Сезон: 7 / Серии: 1-22 из 22 (Грегори Дж. Бонанн, Дуглас Шварц, Гас Триконис) [1996-1997, Боевик, Драма, WEB-DL 1080p] [MVO] (Живи!) pb.wtf

Спасатели Малибу через торрент pb.wtf

Размер: 89.58 GB | Добавлен: 1 год 5 мес. назад | Торрент скачан:1 раз
Скачать  

01-07-2019 05:16 Спасатели Малибу Скачать торрент  

Спасатели Малибу / Baywatch
Год выпуска: 1996-1997
Страна: США
Жанр: Бевик, драма, мелодрама, криминал, приключения…
Продолжительность: ~00:42:30
Перевод: Профессиональный (многоголосый закадровый) | Живи!
Субтитры: Английские (SDH)
Реклама: Отсутствует
Режиссёр: Грегори Дж. Бонанн, Дуглас Шварц, Гас Триконис, Рик Джейкобсон, Георг Фенади, Паркер Стивенсон, Льюис Стаут…
В ролях: Дэвид Хэсселхофф, Джереми Джексон, Памела Андерсон, Майкл Ньюман, Паркер Стивенсон, Шон Уэзерли, Билли Уорлок, Эрика Элениак, Брэндон Кол, Питер Фелпс, Монти Маркхем, Вэнди Малик, Крис Фиоре, Грегори Алан Уильямс, Александра Пол, Майкл Бергин, Дэвид Чокачи, Ясмин Блит…
Описание: Люди на отдыхе - красивые, веселые, расслабленные и... весьма легкомысленные. А спортивные, загорелые и очень сексуальные спасатели всегда наготове - они не позволят утонуть ни одному отдыхающему, даже если кому-то этого очень захочетcя! Каждый день эти молодые парни и девушки опровергают народную мудрость о том, что "спасение утопающих - дело рук самых утопающих". Эта команда спасателей очень необычна. В нее принимают только профессионалов, обладающих великолепными внешними данными: ведь работать приходится на одном из самых популярных пляжей мира. Но спасатели Малибу свое время отдают не только работе: они, как и все люди, влюбляются, переживают, страдают, и нередко попадают в затруднительные ситуации...
Качество: WEB-DL 1080p
Контейнер: MKV
Видео: 1920x1080, 23.976 fps, MPEG-4 AVC, ~13500 kbps
Аудио Rus: AC3, 48.0 kHz, 2ch, 192 kbps | Живи!
Аудио Eng: E-AC3, 48.0 kHz, 2ch, 224 kbps
Формат субтитров: softsub (SRT)



    01. Shark Fever
    02. The Contest
    03. Liquid Assets
    04. Windswept
    05. Scorcher
    06. Beachblast
    07. Guess Who's Coming to Dinner
    08. Let the Games Begin
    09. Buried
    10. Search & Rescue
    11. Heal the Bay
    12. Bachelor of the Month
    13. Chance of a Lifetime
    14. Talk Show
    15. Life Guardian
    16. Matters of the Heart
    17. Rendezvous
    18. Hot Water
    19. Trial by Fire
    20. Baywatch at Sea World
    21. Golden Girls
    22. Nevermore

Общее
Уникальный идентификатор : 333747440457455717971752782513563361080 (0xFB156B3FE9535A0BF9F1BA00E77DDF38)
Полное имя : F:\Baywatch.S07.1080p.WEB-DL.H.264.Rus.Eng-@EniaHD\Baywatch.S07E15.Life.Guardian.1080p.WEB-DL.H.264.Rus.Eng-@EniaHD.mkv
Формат : Matroska
Версия формата : Version 4
Размер файла : 4,03 Гбайт
Продолжительность : 42 м. 26 с.
Общий поток : 13,6 Мбит/сек
Название фильма : Baywatch.S07E15.Life.Guardian.1080p.AMZN.WEB-DL.DDP2.0.H.264-NTb-ParovozN@EniaHD
Дата кодирования : UTC 2019-06-29 19:16:53
Программа кодирования : mkvmerge v32.0.0 ('Astral Progressions') 32-bit
Библиотека кодирования : libebml v1.3.7 + libmatroska v1.5.0

Видео
Идентификатор : 1
Формат : AVC
Формат/Информация : Advanced Video Codec
Профиль формата : High@L4
Настройки формата : CABAC / 4 Ref Frames
Параметр CABAC формата : Да
Параметр RefFrames формата : 4 кадра
Идентификатор кодека : V_MPEG4/ISO/AVC
Продолжительность : 42 м. 26 с.
Битрейт : 13,2 Мбит/сек
Ширина : 1920 пикселей
Высота : 1080 пикселей
Соотношение сторон : 16:9
Режим частоты кадров : Постоянный
Частота кадров : 23,976 (24000/1001) кадра/сек
Цветовое пространство : YUV
Субдискретизация насыщенности : 4:2:0
Битовая глубина : 8 бит
Тип развёртки : Прогрессивная
Бит/(Пиксели*Кадры) : 0.265
Размер потока : 3,90 Гбайт (97%)
Default : Да
Forced : Нет
Цветовой диапазон : Limited
Основные цвета : BT.709
Характеристики трансфера : BT.709
Коэффициенты матрицы : BT.709

Аудио #1
Идентификатор : 2
Формат : AC-3
Формат/Информация : Audio Coding 3
Коммерческое название : Dolby Digital
Идентификатор кодека : A_AC3
Продолжительность : 42 м. 26 с.
Вид битрейта : Постоянный
Битрейт : 192 Кбит/сек
Каналы : 2 канала
Channel layout : L R
Частота : 48,0 КГц
Частота кадров : 31,250 кадров/сек (1536 SPF)
Битовая глубина : 16 бит
Метод сжатия : С потерями
Размер потока : 58,3 Мбайт (1%)
Заголовок : MVO (Живи!)
Язык : Russian
ServiceKind/String : Complete Main
Default : Да
Forced : Нет

Аудио #2
Идентификатор : 3
Формат : E-AC-3
Формат/Информация : Enhanced AC-3
Коммерческое название : Dolby Digital Plus
Идентификатор кодека : A_EAC3
Продолжительность : 42 м. 26 с.
Вид битрейта : Постоянный
Битрейт : 224 Кбит/сек
Каналы : 2 канала
Channel layout : L R
Частота : 48,0 КГц
Частота кадров : 31,250 кадров/сек (1536 SPF)
Метод сжатия : С потерями
Размер потока : 68,0 Мбайт (2%)
Язык : English
ServiceKind/String : Complete Main
Default : Нет
Forced : Нет

Текст
Идентификатор : 4
Формат : UTF-8
Идентификатор кодека : S_TEXT/UTF8
Идентификатор кодека/Информация : UTF-8 Plain Text
Продолжительность : 41 м. 17 с.
Битрейт : 60 бит/сек
ElementCount : 639
Размер потока : 18,3 Кбайт (0%)
Заголовок : SDH
Язык : English
Default : Нет
Forced : Нет

скриншот  скриншот  скриншот  
pb.wtf



Скачать Спасатели Малибу через торрент https://funkyimg.com/i/2V7uy.jpg Скачать фильм Спасатели Малибу через торрент бесплантно в хорошем качестве Описание: Люди на отдыхе - красивые, веселые, расслабленные и... весьма легкомысленные. А спортивные, загорелые и очень сексуальные ... 6 10 1
Info! Серебряная раздача, засчитывается только 50% скачанного.
Торрент: Зарегистрирован [2019-07-01 05:16] · скачан: 1 раз
Статус: √ проверено
Размер: 89.58 GB
Как cкачать? Как скачать Спасатели Малибу через торрент | qTorrent

28-11-2019 20:33  

Отключить всю рекламу на сайте

    Дорогой пользователь! Огромная просьба, поблагодарите релизера, оцените раздачу и оставьте свои комментарий, если Вы скачали Спасатели Малибу через торрент бесплатно! Внесите свою лепту в развитие PiratBit!
    Комментировать посты могут только пользователи прошедшие не сложную регистрацию
    Показать сообщения:    

    Спасатели Малибу через торрент
    Скачать бесплатно Спасатели Малибу
    Спасатели Малибу скачать торрент
    Спасатели Малибу смотреть онлайн
    Cкачать фильм Спасатели Малибу бесплатно
    Спасатели Малибу скачать торрент в хорошем качестве
    Спасатели Малибу смотреть онлайн бесплатно в хорошем качестве


    Вы не можете начинать темы
    Вы не можете отвечать на сообщения
    Вы не можете редактировать свои сообщения
    Вы не можете удалять свои сообщения
    Вы не можете голосовать в опросах
    Вы не можете прикреплять файлы к сообщениям
    Вы можете скачивать файлы