Ссылка на приватное зеркало нашего сайта всего за 1$. Внимание количество ограничено!!!

2 сезон

iTunes

1 сезон

1

2 сезон

2 сезон

iTunes

1 сезон

RePack

30

Ultimate

ВАЖНО

ИГРА 18+

pack

RePack

MK11
pack

Забери бонус

RePack

jed

!!Акция!!

Alien_Rage

RePack

fifa19

RePack

Assassins Creed: Odyssey

RePack

NEED FOR SPEED™ PAYBACK

4 сезон

9 сезон

Бесстыжие 9 сезон

Все сериалы

все сериалы на PB.wtf

RePack

FAR CRY 5
  

Черепа / The Skulls (Ричард Доннер, Дэвид М. Эванс) [2000 г., Детектив, триллер, WEB-DL 1080p от KORSAR] [DUB] pb.wtf

Черепа через торрент pb.wtf

Размер: 9.64 GB | Добавлен: 1 год 5 мес. назад | Торрент скачан:17 раз
Скачать  

01-07-2019 09:39 Черепа Скачать торрент  

Черепа / The Skulls
Год выпуска: 2000
Страна: США
Жанр: Детектив, триллер
Продолжительность: 01:46:32
Перевод: Дублированный
Субтитры: Русские, английские, финские, французские

Режиссер: Роб Коэн



В ролях: Пол Уокер, Джошуа Джексон, Хилл Харпер, Лесли Бибб, Кристофер МакДональд, Стив Харрис, Уильям Л. Петерсен, Крейг Т. Нельсон, Дэвид Асман, Скотт Гибсон, Нигель Беннетт, Эндрю Крулис, Дерек Аасланд, Дженнифер Мелино, Ноа Данби

Описание: О существовании тайной могущественной организации догадывались многие. На самом деле ее люди давно проникли во все сферы американского общества. Поименно их не знал никто. Однако, по крайней мере, три бывших президента Америки состояли в «Черепах». Для Люка Макнамары приглашение вступить в «Черепа» стало сбывшейся мечтой. Перед ним открылись неограниченные возможности, подкрепленные материальными благами. Он стал избранным. Но цена обретения этого права оказалась непомерно высокой!

Релиз от:

Качество: WEB-DL 1080p
Формат: MKV

Видео кодек: H.264
Аудио кодек: AC3

Видео: MPEG-4 AVC, 11,7 Мбит/сек, 1920x1080, 23,976 кадра/сек
Аудио#1: AC3, 6 ch, 384 Кбит/сек | Русский, профессиональный (полное дублирование) Мосфильм-Мастер
Аудио#2: EAC3, 6 ch, 640 Кбит/сек | Английский, оригинал
скриншот   скриншот   скриншот   скриншот  

Общее
Уникальный идентификатор : 204277773410183182434471554961493326286 (0x99AE77D3FB73E9F7A8311A4A2829F9CE)
Полное имя : Черепа.2000.WEB-DL.1080p.mkv
Формат : Matroska
Версия формата : Version 2
Размер файла : 9,64 Гбайт
Продолжительность : 1 ч. 46 м.
Режим общего битрейта : Переменный
Общий поток : 13,0 Мбит/сек
Дата кодирования : UTC 2018-04-09 03:20:17
Программа кодирования : mkvmerge v5.8.0 ('No Sleep / Pillow') built on Sep 2 2012 15:37:04
Библиотека кодирования : libebml v1.2.3 + libmatroska v1.3.0

Видео
Идентификатор : 1
Формат : AVC
Формат/Информация : Advanced Video Codec
Профиль формата : High@L4
Настройки формата : CABAC / 4 Ref Frames
Параметр CABAC формата : Да
Параметр RefFrames формата : 4 кадра
Идентификатор кодека : V_MPEG4/ISO/AVC
Продолжительность : 1 ч. 46 м.
Вид битрейта : Переменный
Битрейт : 11,7 Мбит/сек
Максимальный битрейт : 15,0 Мбит/сек
Ширина : 1920 пикселей
Высота : 1080 пикселей
Соотношение сторон : 16:9
Режим частоты кадров : Постоянный
Частота кадров : 23,976 (24000/1001) кадра/сек
Цветовое пространство : YUV
Субдискретизация насыщенности : 4:2:0
Битовая глубина : 8 бит
Тип развёртки : Прогрессивная
Бит/(Пиксели*Кадры) : 0.235
Размер потока : 8,69 Гбайт (90%)
Язык : English
Default : Да
Forced : Нет
Цветовой диапазон : Limited
Основные цвета : BT.709
Характеристики трансфера : BT.709
Коэффициенты матрицы : BT.709

Аудио #1
Идентификатор : 2
Формат : AC-3
Формат/Информация : Audio Coding 3
Идентификатор кодека : A_AC3
Продолжительность : 1 ч. 46 м.
Вид битрейта : Постоянный
Битрейт : 384 Кбит/сек
Каналы : 6 каналов
Расположение каналов : Front: L C R, Side: L R, LFE
Частота : 48,0 КГц
Частота кадров : 31,250 кадров/сек (1536 SPF)
Битовая глубина : 16 бит
Метод сжатия : С потерями
Размер потока : 293 Мбайт (3%)
Заголовок : DUB | Мосфильм-Мастер
Язык : Russian
По умолчанию : Да
Принудительно : Нет

Аудио #2
Идентификатор : 3
Формат : E-AC-3
Формат/Информация : Enhanced Audio Coding 3
Идентификатор кодека : A_EAC3
Продолжительность : 1 ч. 46 м.
Вид битрейта : Постоянный
Битрейт : 640 Кбит/сек
Каналы : 6 каналов
Расположение каналов : Front: L C R, Side: L R, LFE
Частота : 48,0 КГц
Частота кадров : 187,500 кадров/сек (256 SPF)
Метод сжатия : С потерями
Задержка видео : 16 мс.
Размер потока : 488 Мбайт (5%)
Заголовок : Original
Язык : English
По умолчанию : Нет
Принудительно : Нет

Текст #1
Идентификатор : 4
Формат : UTF-8
Идентификатор кодека : S_TEXT/UTF8
Идентификатор кодека/Информация : UTF-8 Plain Text
Язык : Russian
По умолчанию : Нет
Принудительно : Нет

Текст #2
Идентификатор : 5
Формат : UTF-8
Идентификатор кодека : S_TEXT/UTF8
Идентификатор кодека/Информация : UTF-8 Plain Text
Заголовок : SDH
Язык : English
По умолчанию : Нет
Принудительно : Нет

Текст #3
Идентификатор : 6
Формат : UTF-8
Идентификатор кодека : S_TEXT/UTF8
Идентификатор кодека/Информация : UTF-8 Plain Text
Язык : Finnish
По умолчанию : Нет
Принудительно : Нет

Текст #4
Идентификатор : 7
Формат : UTF-8
Идентификатор кодека : S_TEXT/UTF8
Идентификатор кодека/Информация : UTF-8 Plain Text
Язык : French
По умолчанию : Нет
Принудительно : Нет

Меню
00:00:00.000 : en:Luke's Life (Main Title)
00:12:45.792 : en:Tapped by the Skulls
00:16:56.792 : en:A Snake Without Scales
00:21:18.792 : en:No Middle Ground
00:25:55.792 : en:Above Any Other
00:32:41.792 : en:To Be a Skull
00:41:23.792 : en:Suicide
00:49:13.792 : en:Liar's Hell
00:52:47.792 : en:Mandrake's Gambit
00:58:43.792 : en:Revenge of the Townies
01:06:38.792 : en:Skullduggery
01:11:23.792 : en:Luke's Revenge
01:14:29.792 : en:Surveillance
01:17:55.792 : en:Thorazine Hell
01:25:54.792 : en:Die by the Rules
01:31:47.792 : en:The Duel
01:40:05.792 : en:Redemption
01:41:49.792 : en:End Titles

pb.wtf



Скачать Черепа через торрент https://b.radikal.ru/b38/1907/74/17451be52f3a.png Скачать фильм Черепа через торрент бесплантно в хорошем качестве Описание: О существовании тайной могущественной организации догадывались многие. На самом деле ее люди давно проникли во все сферы ... 5 10 1
Торрент: Зарегистрирован [2019-07-01 09:46] · скачан: 17 раз
Статус: √ проверено
Размер: 9.64 GB
Как cкачать? Как скачать Черепа через торрент | qTorrent

% Раздел Тема Автор DL S | L
Документальные фильмы и телепередачи [ 1.38 GB ] Viasat History: Тайны римских черепов / The Mystery of the Roman Skulls [2016 Документальный HDTV 1080p] VO bober100 Скачать
1 | 0
Документальные фильмы и телепередачи [ 645 MB ] Viasat History: Тайны римских черепов / The Mystery of the Roman Skulls [2016 Документальный HDTVRip] VO bober100 Скачать
1 | 0
Фильмы 2001-2005 [ 1.37 GB ] Черепа 3 / Skulls III The [2003 DVDRip] Pasha74 Скачать
1 | 0
Фильмы 2001-2005 [ 1.37 GB ] Черепа 2 / Skulls II The [2002 DVDRip] Pasha74 Скачать
1 | 0
Фильмы до 2000 г. [ 1.37 GB ] Черепа / Skulls The [2000 DVDRip] Pasha74 Скачать
1 | 0
Фильмы 2006-2008 [ 1.37 GB ] Храм черепов / Allan Quatermain and the Temple of Skulls [2008 DVDRip Пиратка] allexx70 Скачать
1 | 0

28-11-2019 20:33  

Отключить всю рекламу на сайте

    Дорогой пользователь! Огромная просьба, поблагодарите релизера, оцените раздачу и оставьте свои комментарий, если Вы скачали Черепа через торрент бесплатно! Внесите свою лепту в развитие PiratBit!
    Комментировать посты могут только пользователи прошедшие не сложную регистрацию
    Показать сообщения:    

    Черепа через торрент
    Скачать бесплатно Черепа
    Черепа скачать торрент
    Черепа смотреть онлайн
    Cкачать фильм Черепа бесплатно
    Черепа скачать торрент в хорошем качестве
    Черепа смотреть онлайн бесплатно в хорошем качестве


    Вы не можете начинать темы
    Вы не можете отвечать на сообщения
    Вы не можете редактировать свои сообщения
    Вы не можете удалять свои сообщения
    Вы не можете голосовать в опросах
    Вы не можете прикреплять файлы к сообщениям
    Вы можете скачивать файлы