новый адрес
Ссылка на приватное зеркало всего за 1$. Внимание количество ограничено!!!

iTunes

1+1

iTunes

мы

WEB-DL

1

iTunes

Чернобыль

iTunes

Ральф против интернета

Лицензия

ПШазам

Лицензия

Оно 2

Лицензия

30
pack

Вам бонус

ВАЖНО

!!Акция!!

Alien_RageХит недели

RePack

Resident Evil 21

ИГРА 18+

pack

RePack

jed

!!Акция!!

Alien_Rage

RePack

fifa19

RePack

Assassins Creed: Odyssey

RePack

NEED FOR SPEED™ PAYBACK

3 сезон

9 сезон

Бесстыжие 9 сезон

Все сериалы

все сериалы на PB.wtf

RePack

FAR CRY 5
Ребята, катастрофически не хватает 1900р. для оплаты серверов за Октябрь (всвязи с блокировками трафик упал в 3 раза), 1-2р., выручайте.
  

План побега 3 / Escape Plan: The Extractors (Джон Херцфелд / John Herzfeld) [2019, боевик, HDRip-AVC] [MVO] (СВ Студия) - ExKinoRay pb.wtf

План побега 3 через торрент pb.wtf

Раздают: 57 [ 350 KB/s ] Качают: 1 [ 0 KB/s ]
Размер: 1.74 GB | Добавлен: 5 мес. 10 д. назад | Торрент скачан:753 раза
Скачать  

01-07-2019 13:47 План побега 3 Скачать торрент  

Название: План побега 3
Оригинальное название: Escape Plan: The Extractors
Год выхода: 2019
Жанр: Боевик
Режиссер: Джон Херцфелд
В ролях: Сильвестр Сталлоне, Дэйв Батиста, 50 Cent, Джейми Кинг, Макс Чжан, Девон Сава, Гарри Шам мл., Расселл Вонг, Дэниэл Бернхард, Лидия Халл

Описание:
Непревзойденный взломщик тюрем Рэй Бреслин опять ввязался в смертельно опасную авантюру: вместе со своей командой он берётся разыскать похищенную дочь своего друга - бизнесмена из Гонконга. Нити расследования приводят к одной из самых секретных тюрем Америки, которая называется «Пункт Дьявола».

rating

Страна: США
Студия: Emmett/Furla/Oasis Films (EFO Films), Leomus Pictures, Twirly Films Limited
Продолжительность: 01:27:34
Перевод: Профессиональный многоголосый | СВ Студия

БЕЗ КАКОЙ-ЛИБО РЕКЛАМЫ!

Формат: MKV
Качество: HDRip-AVC
Видео: MPEG-4 AVC, 1024x426 (2.40:1), 23.976 fps, 1971 Kbps, 0.188 bit/pixel
Аудио 1: 48 kHz, AC3, 5.1, 448 Kbps | RUS |
Аудио 2: 48 kHz, AC3, 5.1, 448 Kbps | ENG |

Субтитры: Русские (Full (Enigma)), английские
General
Unique ID : 181737619557576560263288770713638006320 (0x88B964713AFD4812BED7AD88DDA9EE30)
Complete name : F:\Escape.Plan.The.Extractors.2019.MVO.HDRip.AVC.ExKinoRay.mkv
Format : Matroska
Format version : Version 2
File size : 1.74 GiB
Duration : 1 h 27 min
Overall bit rate : 2 852 kb/s
Movie name : Escape Plan The Extractors 2019 from ExKinoRay
Encoded date : UTC 2019-07-01 13:09:34
Writing application : mkvmerge v5.6.0 ('Kenya Kane') built on May 27 2012 16:44:04
Writing library : libebml v1.2.3 + libmatroska v1.3.0

Video
ID : 1
Format : AVC
Format/Info : Advanced Video Codec
Format profile : High@L4.1
Format settings, CABAC : Yes
Format settings, ReFrames : 12 frames
Codec ID : V_MPEG4/ISO/AVC
Duration : 1 h 27 min
Bit rate : 1 971 kb/s
Width : 1 024 pixels
Height : 426 pixels
Display aspect ratio : 2.40:1
Frame rate mode : Constant
Frame rate : 23.976 (23976/1000) FPS
Color space : YUV
Chroma subsampling : 4:2:0
Bit depth : 8 bits
Scan type : Progressive
Bits/(Pixel*Frame) : 0.188
Stream size : 1.16 GiB (67%)
Title : Enigma
Writing library : x264 core 152 r2851 ba24899
Encoding settings : cabac=1 / ref=12 / deblock=1:-2:-2 / analyse=0x3:0x113 / me=umh / subme=10 / psy=1 / psy_rd=1.03:0.10 / mixed_ref=1 / me_range=32 / chroma_me=1 / trellis=2 / 8x8dct=1 / cqm=0 / deadzone=21,11 / fast_pskip=0 / chroma_qp_offset=-3 / threads=12 / lookahead_threads=3 / sliced_threads=0 / nr=0 / decimate=0 / interlaced=0 / bluray_compat=0 / constrained_intra=0 / bframes=12 / b_pyramid=2 / b_adapt=2 / b_bias=0 / direct=3 / weightb=1 / open_gop=0 / weightp=2 / keyint=240 / keyint_min=23 / scenecut=40 / intra_refresh=0 / rc=2pass / mbtree=0 / bitrate=1971 / ratetol=1.0 / qcomp=0.60 / qpmin=0 / qpmax=51 / qpstep=4 / cplxblur=20.0 / qblur=0.5 / ip_ratio=1.30 / pb_ratio=1.20 / aq=3:0.80
Language : English
Default : Yes
Forced : No
Color range : Limited
Color primaries : BT.709
Transfer characteristics : BT.709
Matrix coefficients : BT.709

Audio #1
ID : 2
Format : AC-3
Format/Info : Audio Coding 3
Mode extension : CM (complete main)
Format settings, Endianness : Big
Codec ID : A_AC3
Duration : 1 h 27 min
Bit rate mode : Constant
Bit rate : 448 kb/s
Channel(s) : 6 channels
Channel positions : Front: L C R, Side: L R, LFE
Sampling rate : 48.0 kHz
Frame rate : 31.250 FPS (1536 spf)
Compression mode : Lossy
Stream size : 281 MiB (16%)
Title : MVO
Language : Russian
Default : Yes
Forced : No

Audio #2
ID : 3
Format : AC-3
Format/Info : Audio Coding 3
Mode extension : CM (complete main)
Format settings, Endianness : Big
Codec ID : A_AC3
Duration : 1 h 27 min
Bit rate mode : Constant
Bit rate : 448 kb/s
Channel(s) : 6 channels
Channel positions : Front: L C R, Side: L R, LFE
Sampling rate : 48.0 kHz
Frame rate : 31.250 FPS (1536 spf)
Compression mode : Lossy
Stream size : 281 MiB (16%)
Language : English
Default : No
Forced : No

Text #1
ID : 4
Format : UTF-8
Codec ID : S_TEXT/UTF8
Codec ID/Info : UTF-8 Plain Text
Title : Full (Enigma)
Language : Russian
Default : No
Forced : No

Text #2
ID : 5
Format : UTF-8
Codec ID : S_TEXT/UTF8
Codec ID/Info : UTF-8 Plain Text
Language : English
Default : No
Forced : No

Menu
00:00:00.000 : :Chapter 1
00:04:06.162 : :Chapter 2
00:07:29.198 : :Chapter 3
00:12:32.585 : :Chapter 4
00:19:09.773 : :Chapter 5
00:23:18.271 : :Chapter 6
00:25:24.231 : :Chapter 7
00:31:17.625 : :Chapter 8
00:37:05.264 : :Chapter 9
00:44:02.765 : :Chapter 10
00:47:27.803 : :Chapter 11
00:52:19.386 : :Chapter 12
00:56:14.245 : :Chapter 13
01:03:39.899 : :Chapter 14
01:09:24.076 : :Chapter 15
01:16:47.519 : :Chapter 16
Релиз от:

Автор релиза: pb.wtf



Скачать План побега 3 через торрент https://i106.fastpic.ru/big/2019/0626/7e/3386bd1d4ec67fd3e2e89a960f468b7e.jpg Скачать фильм План побега 3 через торрент бесплантно в хорошем качестве Описание:Непревзойденный взломщик тюрем Рэй Бреслин опять ввязался в смертельно опасную авантюру: вместе со своей командой он берётся ... 9.9 10 14
Info! Золотая раздача, скачанное не засчитывается.
Торрент: Зарегистрирован [2019-07-01 13:47] · скачан: 753 раз
Статус: √ проверено
Размер: 1.74 GB
Как cкачать? Как скачать План побега 3 через торрент | qTorrent

% Раздел Тема Автор DL S | L
Фильмы [HD 720p, 1080p] (Хороший звук DUB, MVO) [ 3.97 GB ] План побега 3 / Escape Plan: The Extractors [2019 BDRip 720p] [MVO] - ExKinoRay Enigma2010 Скачать
66 | 1

28-11-2019 20:33  

Отключить всю рекламу на сайте

02-07-2019 08:42 План побега 3 Скачать торрент  

Спасибо, конечно, но я еще от второй части не отошёл pb.wtf



    Дорогой пользователь! Огромная просьба, поблагодарите релизера, оцените раздачу и оставьте свои комментарий, если Вы скачали План побега 3 через торрент бесплатно! Внесите свою лепту в развитие PiratBit!
    Комментировать посты могут только пользователи прошедшие не сложную регистрацию
    Показать сообщения:    

    План побега 3 через торрент
    Скачать бесплатно План побега 3
    План побега 3 скачать торрент
    План побега 3 смотреть онлайн
    Cкачать фильм План побега 3 бесплатно
    План побега 3 скачать торрент в хорошем качестве
    План побега 3 смотреть онлайн бесплатно в хорошем качестве


    Вы не можете начинать темы
    Вы не можете отвечать на сообщения
    Вы не можете редактировать свои сообщения
    Вы не можете удалять свои сообщения
    Вы не можете голосовать в опросах
    Вы не можете прикреплять файлы к сообщениям
    Вы можете скачивать файлы