Ссылка на приватное зеркало нашего сайта всего за 1$. Внимание количество ограничено!!!

2 сезон

iTunes

1 сезон

1

2 сезон

2 сезон

iTunes

1 сезон

RePack

30

Ultimate

ВАЖНО

ИГРА 18+

pack

RePack

MK11
pack

Забери бонус

RePack

jed

!!Акция!!

Alien_Rage

RePack

fifa19

RePack

Assassins Creed: Odyssey

RePack

NEED FOR SPEED™ PAYBACK

4 сезон

9 сезон

Бесстыжие 9 сезон

Все сериалы

все сериалы на PB.wtf

RePack

FAR CRY 5
  

Слишком стар, чтобы умереть молодым / Too Old to Die Young / Сезон: 1 / Серии: 1-10 из 10 (Николас Виндинг Рефн) [2019, драма, криминал., WEB-DLRip] [MVO] (TVShows) pb.wtf

Слишком стар, чтобы умереть молодым через торрент pb.wtf

Размер: 10.57 GB | Добавлен: 1 год 4 мес. назад | Торрент скачан:82 раза
Скачать  

02-07-2019 14:02 Слишком стар, чтобы умереть молодым Скачать торрент  

Слишком стар, чтобы умереть молодым / Too Old to Die Young Год выпуска: 2019
Страна: США
Жанр: драма, криминал
Продолжительность: ~ 01:33:00

Перевод: Профессиональный (многоголосый закадровый) TVShows

Режиссёр: Николас Виндинг Рефн

В ролях: Бабс Олусанмокун, Селестин Кориэль, Майлз Теллер, Нелл Тайгер Фри, Уильям Болдуин, Александр Гомес, Джон Хоукс, Августо Агилера, Джена Мэлоун, Кристина Родло

Описание: Полицейский Мартин во время службы убил «не ту женщину» и оказался вовлечён в гангстерский конфликт. Теперь подполье ждёт, что он искупит вину. Среди сторон — якудза, русская мафия, мексиканские наёмники и банды тинейджеров.



Качество: WEB-DLRip
Формат: AVI
Видео: XviD, 704x384, 24 fps, ~ 1599 kbps
Аудио 1: 48 kHz, AC3 2 ch, ~192 kbps|TVShows|
Аудио 2: 48 kHz, AC3 2 ch, ~192 kbps
Субтитры: Английские

Format : AVI
Format/Info : Audio Video Interleave
File size : 1.30 GiB
Duration : 1h 33mn
Overall bit rate : 1 995 Kbps
Movie name : Слишком стар, чтобы умереть молодым 1х01: Том 1: Дьявол
Director : Бёдвар (WEB-DLRip)
Writing application : VirtualDubModRus 1.5.10.2 (build 2542/release)
Comment : 20.06.2019

Video
ID : 0
Format : MPEG-4 Visual
Format profile : Advanced Simple@L5
Format settings, BVOP : 1
Format settings, QPel : No
Format settings, GMC : No warppoints
Format settings, Matrix : Default (MPEG)
Codec ID : XVID
Codec ID/Hint : XviD
Duration : 1h 33mn
Bit rate : 1 597 Kbps
Width : 704 pixels
Height : 384 pixels
Display aspect ratio : 1.85:1
Frame rate : 24.000 fps
Color space : YUV
Chroma subsampling : 4:2:0
Bit depth : 8 bits
Scan type : Progressive
Compression mode : Lossy
Bits/(Pixel*Frame) : 0.246
Stream size : 1.04 GiB (80%)
Writing library : XviD 67

Audio #1
ID : 1
Format : AC-3
Format/Info : Audio Coding 3
Mode extension : CM (complete main)
Format settings, Endianness : Big
Codec ID : 2000
Duration : 1h 33mn
Bit rate mode : Constant
Bit rate : 192 Kbps
Channel(s) : 2 channels
Channel positions : Front: L R
Sampling rate : 48.0 KHz
Frame rate : 31.250 fps (1536 spf)
Compression mode : Lossy
Stream size : 128 MiB (10%)
Alignment : Split accross interleaves
Interleave, duration : 42 ms (1.00 video frame)
Interleave, preload duratio : 500 ms

Audio #2
ID : 2
Format : AC-3
Format/Info : Audio Coding 3
Mode extension : CM (complete main)
Format settings, Endianness : Big
Codec ID : 2000
Duration : 1h 33mn
Bit rate mode : Constant
Bit rate : 192 Kbps
Channel(s) : 2 channels
Channel positions : Front: L R
Sampling rate : 48.0 KHz
Frame rate : 31.250 fps (1536 spf)
Compression mode : Lossy
Stream size : 128 MiB (10%)
Alignment : Split accross interleaves
Interleave, duration : 42 ms (1.00 video frame)
Interleave, preload duratio : 500 ms
скриншот  скриншот  скриншот  
pb.wtf



Скачать Слишком стар, чтобы умереть молодым через торрент https://c.radikal.ru/c19/1906/65/00eb7a07fbbf.jpg Скачать фильм Слишком стар, чтобы умереть молодым через торрент бесплантно в хорошем качестве Описание: Полицейский Мартин во время службы убил «не ту женщину» и оказался вовлечён в гангстерский конфликт. Теперь подполье ждёт, что ... 10 10 2
Торрент: Зарегистрирован [2019-07-02 14:02] · скачан: 82 раз
Статус: √ проверено
Размер: 10.57 GB
Как cкачать? Как скачать Слишком стар, чтобы умереть молодым через торрент | qTorrent

% Раздел Тема Автор DL S | L
Фильмы с авторской озвучкой [ 81.14 GB ] Слишком стар чтобы умереть молодым / Too Old to Die Young / Сезон: 1 / Серии: 1-10 из 10 [2019 HDR HEVC WEB-DL 2160p] [AVO] killermax2013 Скачать
1 | 0
Зарубежные сериалы [ 53.96 GB ] Слишком стар чтобы умереть молодым / Too Old to Die Young / Сезон: 1 / Серии: 1-10 из 10 [2019 WEB-DL 1080p] MVO [Lostfilm] bober100 Скачать
1 | 0
Зарубежные сериалы [ 9.16 GB ] Слишком стар чтобы умереть молодым / Too Old to Die Young / Сезон: 1 / Серии: 1-8 из 10 [2019 WEB-DLRip] MVO [Lostfilm] bober100 Скачать
1 | 0
Зарубежные сериалы [ 27.15 GB ] Слишком стар чтобы умереть молодым / Too Old to Die Young / Сезон: 1 / Серии: 1-10 из 10 [2019 WEB-DL 720p] MVO [Lostfilm] bober100 Скачать
1 | 0
Зарубежные сериалы [ 27.15 GB ] Слишком стар чтобы умереть молодым / Too Old to Die Young / Сезон: 1 / Серии: 1-10 из 10 [2019 WEBRip 720p] [MVO] killermax2013 Скачать
1 | 0
Зарубежные сериалы [ 52.6 GB ] Слишком стар чтобы умереть молодым / Too Old to Die Young / Сезон: 1 / Серии: 1-10 из 10 [2019 WEBRip 1080p] MVO [TVShows] bober100 Скачать
1 | 0
Фильмы без перевода [ 50.57 GB ] Слишком стар чтобы умереть молодым / Too Old to Die Young / Сезон: 1 / Серии: 1-10 из 10 [2019 WEBRip 1080p] [Sub] killermax2013 Скачать
1 | 0

28-11-2019 20:33  

Отключить всю рекламу на сайте

    Дорогой пользователь! Огромная просьба, поблагодарите релизера, оцените раздачу и оставьте свои комментарий, если Вы скачали Слишком стар, чтобы умереть молодым через торрент бесплатно! Внесите свою лепту в развитие PiratBit!
    Комментировать посты могут только пользователи прошедшие не сложную регистрацию
    Показать сообщения:    

    Слишком стар, чтобы умереть молодым через торрент
    Скачать бесплатно Слишком стар, чтобы умереть молодым
    Слишком стар, чтобы умереть молодым скачать торрент
    Слишком стар, чтобы умереть молодым смотреть онлайн
    Cкачать фильм Слишком стар, чтобы умереть молодым бесплатно
    Слишком стар, чтобы умереть молодым скачать торрент в хорошем качестве
    Слишком стар, чтобы умереть молодым смотреть онлайн бесплатно в хорошем качестве


    Вы не можете начинать темы
    Вы не можете отвечать на сообщения
    Вы не можете редактировать свои сообщения
    Вы не можете удалять свои сообщения
    Вы не можете голосовать в опросах
    Вы не можете прикреплять файлы к сообщениям
    Вы можете скачивать файлы