Ссылка на приватное зеркало нашего сайта всего за 1$. Внимание количество ограничено!!!

2 сезон

iTunes

1 сезон

1

2 сезон

2 сезон

iTunes

1 сезон

RePack

30

Новинка

ВАЖНО

ИГРА 18+

pack

RePack

MK11
pack

Забери бонус

RePack

jed

!!Акция!!

Alien_Rage

RePack

fifa19

RePack

Assassins Creed: Odyssey

RePack

NEED FOR SPEED™ PAYBACK

4 сезон

9 сезон

Бесстыжие 9 сезон

Все сериалы

все сериалы на PB.wtf

RePack

FAR CRY 5
  

Джетт / Jett / Сезон: 1 / Серии: 1-9 из 9 (Себастьян Гутьеррес) [2019, драма, криминал, WEBRip] [MVO] (TVShows) pb.wtf

Джетт через торрент pb.wtf

Размер: 8.79 GB | Добавлен: 1 год 3 мес. назад | Торрент скачан:26 раз
Скачать  

02-07-2019 14:11 Джетт Скачать торрент  

Джетт | Jett
Год выпуска: 2019
Страна: США
Жанр: драма, криминал
Продолжительность: ~ 00:59:00

Перевод: Профессиональный (многоголосый закадровый) TVShows

Режиссёр: Себастьян Гутьеррес

В ролях: Карла Гуджино, Майкл Аронов, Гас Хэлпер, Мустафа Жакир, Люси Уолтерс, Джанкарло Эспозито, Грег Брайк, Джонатан Кёнсген, Дэвид Арон Дэмейн, Анджелика Лиск и др.
Описание: Профессиональный вор Дэйзи Джетт Ковальски недавно вышла из тюрьмы. Ей снова придётся вернуться к опасному ремеслу, поскольку именно этого хотят грозные криминальные боссы.
rating


Качество: WEBRip
Формат: AVI
Видео: XVID, 704x352, 23.976 fps, ~2000 kbps avg, 0.33 bit/pixel
Аудио Rus: AC3, 48.0 KHz, 6 channels, 384 kbps
Субтитры: нет
General
Complete name : G:\Джетт (Сезон 1) TVShows\Jett.S01E01.WEBRip.RGzsRutracker.Celta88.avi
Format : AVI
Format/Info : Audio Video Interleave
File size : 1.09 GiB
Duration : 1 h 4 min
Overall bit rate : 2 394 kb/s
Writing application : VirtualDubMod 1.5.10.2 (build 2540/release)
Writing library : VirtualDubMod build 2540/release

Video
ID : 0
Format : MPEG-4 Visual
Format profile : Advanced Simple@L5
Format settings, BVOP : 1
Format settings, QPel : No
Format settings, GMC : No warppoints
Format settings, Matrix : Custom
Codec ID : XVID
Codec ID/Hint : XviD
Duration : 1 h 4 min
Bit rate : 2 000 kb/s
Width : 704 pixels
Height : 352 pixels
Display aspect ratio : 2.000
Frame rate : 23.976 (24000/1001) FPS
Color space : YUV
Chroma subsampling : 4:2:0
Bit depth : 8 bits
Scan type : Progressive
Compression mode : Lossy
Bits/(Pixel*Frame) : 0.337
Stream size : 929 MiB (84%)
Writing library : XviD 73

Audio
ID : 1
Format : AC-3
Format/Info : Audio Coding 3
Mode extension : CM (complete main)
Format settings, Endianness : Big
Codec ID : 2000
Duration : 1 h 4 min
Bit rate mode : Constant
Bit rate : 384 kb/s
Channel(s) : 6 channels
Channel positions : Front: L C R, Side: L R, LFE
Sampling rate : 48.0 kHz
Frame rate : 31.250 FPS (1536 spf)
Bit depth : 16 bits
Compression mode : Lossy
Delay relative to video : 13 ms
Stream size : 178 MiB (16%)
Alignment : Split accross interleaves
Interleave, duration : 42 ms (1.00 video frame)
Interleave, preload duratio : 500 ms
скриншот  скриншот  скриншот  
Внимание! Раздача ведётся путём добавления новых серий; при каждом добавлении создаётся новый торрент.
Чтобы начать докачку новой серии, пользователям необходимо сделать следующее:
1. Остановить скачивание.
2. Удалить старый торрент у себя из клиента (старые серии удалять не надо).
3. Скачать новый торрент и запустить его у себя в клиенте вместо старого, при этом указать клиенту путь в старую папку куда и должно происходить скачивание новых серий.
Ваш клиент при этом должен произвести хеширование (проверку) старой папки (если не производит сам - помогите ему сделать это), и будет докачивать только те серии которых у вас ещё нет. Старые серии при этом не удаляются, а продолжают раздаваться!
Eсли вы уже удалили старые серии, то предотвратить повторную закачку старых серий можно, отжав галочку в соответствующих местах при запуске нового торрента.
pb.wtf



Скачать Джетт через торрент https://i3.imageban.ru/out/2019/06/20/7456799fdd784c85c3d03f8ccba480ce.jpg Скачать фильм Джетт через торрент бесплантно в хорошем качестве Описание: Профессиональный вор Дэйзи Джетт Ковальски недавно вышла из тюрьмы. Ей снова придётся вернуться к опасному ремеслу, поскольку ... 8 10 4
Торрент: Зарегистрирован [2019-08-14 15:38] · скачан: 26 раз
Статус: √ проверено
Размер: 8.79 GB
Как cкачать? Как скачать Джетт через торрент | qTorrent

% Раздел Тема Автор DL S | L
Зарубежные сериалы [ 29.64 GB ] Джетт / Jett / Сезон: 1 / Серии: 1-9 из 9 [2019 WEB-DL 1080p] MVO [Кириллица / Amedia] bober100 Скачать
1 | 0
Зарубежные сериалы [ 10.64 GB ] Джетт / Jett / Сезон: 1 / Серии: 1-9 из 9 [2019 WEB-DLRip] [MVO] killermax2013 Скачать
1 | 0
Зарубежные сериалы [ 9.34 GB ] Джетт / Jett / Сезон: 1 / Серии: 1-9 из 9 [2019 WEB-DLRip] MVO [Кириллица] bober100 Скачать
1 | 0
Зарубежные сериалы [ 30.54 GB ] Джетт / Jett / Сезон: 1 / Серии: 1-9 из 9 [2019 WEBRip 1080p] [MVO] killermax2013 Скачать
1 | 0

28-11-2019 20:33  

Отключить всю рекламу на сайте

    Дорогой пользователь! Огромная просьба, поблагодарите релизера, оцените раздачу и оставьте свои комментарий, если Вы скачали Джетт через торрент бесплатно! Внесите свою лепту в развитие PiratBit!
    Комментировать посты могут только пользователи прошедшие не сложную регистрацию
    Показать сообщения:    

    Джетт через торрент
    Скачать бесплатно Джетт
    Джетт скачать торрент
    Джетт смотреть онлайн
    Cкачать фильм Джетт бесплатно
    Джетт скачать торрент в хорошем качестве
    Джетт смотреть онлайн бесплатно в хорошем качестве


    Вы не можете начинать темы
    Вы не можете отвечать на сообщения
    Вы не можете редактировать свои сообщения
    Вы не можете удалять свои сообщения
    Вы не можете голосовать в опросах
    Вы не можете прикреплять файлы к сообщениям
    Вы можете скачивать файлы