Ссылка на приватное зеркало нашего сайта всего за 1$. Внимание количество ограничено!!!

2 сезон

iTunes

1 сезон

1

2 сезон

2 сезон

iTunes

1 сезон

RePack

30

Новинка

ВАЖНО

ИГРА 18+

pack

RePack

MK11
pack

Забери бонус

RePack

jed

!!Акция!!

Alien_Rage

RePack

fifa19

RePack

Assassins Creed: Odyssey

RePack

NEED FOR SPEED™ PAYBACK

4 сезон

9 сезон

Бесстыжие 9 сезон

Все сериалы

все сериалы на PB.wtf

RePack

FAR CRY 5
  

Тьма / Dark / Сезон: 2 / Серии: 1-8 из 8 (Баран бо Одар) [2019, триллер, драма, криминал, детектив, фантастика, WEBRip 1080p] [MVO] (NewStudio) pb.wtf

Тьма через торрент pb.wtf

Раздают: 3 [ 5 KB/s ]
Размер: 18.02 GB | Добавлен: 1 год 4 мес. назад | Торрент скачан:417 раз
Скачать  

03-07-2019 03:37 Тьма Скачать торрент  


Тьма | Dark

«Всё связано»

Год выпуска: 2019 (2 сезон)
Страна: Германия, США
Жанр: Триллер, драма, криминал, детектив, фантастика
Продолжительность: ~ 01:00:00
Перевод: Профессиональный многоголосый закадровый (NewStudio)
Субтитры: Русские (FOCS), немецкие

Режиссёр: Баран бо Одар / Baran bo Odar

В ролях: Луис Хофманн/Андреас Пичман (Йонас Канвальд), Каролина Эйхгорн/Стефани Амарелль (Шарлотта Допплер), Майя Шёне/Элла Ли (Ханна Канвальд), Лиза Викари (Марта Нильсен), Йордис Трибель/Неле Требс (Катарина Нильсен), Марк Вашке/Макс Шиммельпфенниг (Ной), Дитрих Холлиндербаумер (Адам), Дебора Кауфман/Лидия Мария Макридес (Регина Тидеманн), Оливер Мазуччи/Лудгер Бёкельман/Винфрид Глатцедер (Ульрих Нильсен), Юлика Йенкинс/Лиза Кройцер/Гвендолин Гёбель (Клаудия Тидеманн), Мориц Жан/Вольфрам Кох (Магнус Нильсен), Пауль Лукс (Бартош Тидеманн), Штефан Кампвирт (Петер Допплер), Джина Стибиц/Карина Визе (Франциска Допплер), Карлотта фон Фалькенхайн/Сандра Боргманн (Элизабет Допплер), Питер Бенедикт/Бела Габор Ленц (Александр Тидеманн), Том Филип/Питер Шнайдер/Герман Бейер (Хельге Допплер), Кристиан Пёцольд/Себастьян Хюльк (Эгон Тидеманн), Йоханнес Кунке (Инспектор Клаузен), Антье Трауэ (Агнес Нильсен), Михаэль Мендль/Анатоль Таубман (Бернд Допплер), Кристиан Штейер/Арнд Клавиттер (Х. Г. Таннхаус), Леопольд Хорнунг (Торбен Уоллер) и др.

Описание: История четырёх семей, живущих спокойной и размеренной жизнью в маленьком немецком городке. Видимая идиллия рушится, когда бесследно исчезают двое детей и воскресают тёмные тайны прошлого. Все силы местного департамента полиции и горожан брошены на поиски пропавших детей. Все повторяется, как и 33 года назад. Что-то не так в городе. Эта местность, словно больна и одержима мистикой. А самое страшное, что убийца, возможно, ходит среди обитателей городка.

Источником русской аудиодорожки является релиз группы:
Перевод: Лена Прокопенко, Саша Иванова, Даша Зеленова
Редактор: Александра Цернант


01. Начало и конец | Beginnings and Endings
02. Темная материя | Dark Matter
03. Призраки | Ghosts
04. Путешественники | The Travelers
05. Потерянный и найденный | Lost and Found
06. Бесконечный цикл | An Endless Cycle
07. Белый дьявол | The White Devil
08. Конец и начало | Endings and Beginnings


Качество: WEBRip 1080p
Формат: MKV
Видео кодек: H.264
Аудио кодек: AC3, E-AC3
Видео: MPEG-4 AVC, 1920x1080 (16:9), 24.000 fps, ~4900 kbps
Аудио 1: [Русский] AC3, 48 kHz, 2 ch, 192 kbps | NewStudio
Аудио 2: [Немецкий] E-AC3, 48 kHz, 6 ch, 640 kbps
Субтитры: Русские, немецкие (SRT)
Реклама: Отсутствует


Код:

General
Unique ID                   : 190212020434021669429681577893051233169 (0x8F1980A9F9DB0FC0A5E4FBD659C7F391)
Complete name               : J:\...\Dark.S02.1080p.WEBRip\Dark.S02E01.Beginnings.and.Endings.1080p.WEBRip.Rus.Ger.mkv
Format                      : Matroska
Format version              : Version 4
File size                   : 2.06 GiB
Duration                    : 56 min 24 s
Overall bit rate mode       : Variable
Overall bit rate            : 5 224 kb/s
Encoded date                : UTC 2019-07-02 17:21:49
Writing application         : mkvmerge v7.3.0 ('Nouages') 64bit built on Oct 22 2014 18:53:34
Writing library             : libebml v1.3.0 + libmatroska v1.4.1

Video
ID                          : 1
Format                      : AVC
Format/Info                 : Advanced Video Codec
Format profile              : High@L4
Format settings             : CABAC / 4 Ref Frames
Format settings, CABAC      : Yes
Format settings, ReFrames   : 4 frames
Codec ID                    : V_MPEG4/ISO/AVC
Duration                    : 53 min 55 s
Bit rate mode               : Variable
Bit rate                    : 4 621 kb/s
Maximum bit rate            : 20.0 Mb/s
Width                       : 1 920 pixels
Height                      : 1 080 pixels
Display aspect ratio        : 16:9
Frame rate mode             : Constant
Frame rate                  : 24.000 FPS
Color space                 : YUV
Chroma subsampling          : 4:2:0
Bit depth                   : 8 bits
Scan type                   : Progressive
Bits/(Pixel*Frame)          : 0.093
Stream size                 : 1.74 GiB (85%)
Writing library             : x264 core 148 r2715 7e75228
Encoding settings           : cabac=1 / ref=4 / deblock=1:0:0 / analyse=0x3:0x111 / me=umh / subme=10 / psy=1 / psy_rd=1.00:0.00 / mixed_ref=1 / me_range=120 / chroma_me=1 / trellis=2 / 8x8dct=1 / cqm=0 / deadzone=21,11 / fast_pskip=1 / chroma_qp_offset=-2 / threads=8 / lookahead_threads=2 / sliced_threads=0 / nr=0 / decimate=1 / interlaced=0 / bluray_compat=0 / stitchable=1 / constrained_intra=0 / bframes=16 / b_pyramid=2 / b_adapt=2 / b_bias=0 / direct=3 / weightb=1 / open_gop=0 / weightp=2 / keyint=240 / keyint_min=121 / scenecut=0 / intra_refresh=0 / rc_lookahead=240 / rc=crf / mbtree=1 / crf=16.0 / qcomp=0.50 / qpmin=6 / qpmax=51 / qpstep=4 / vbv_maxrate=20000 / vbv_bufsize=25000 / crf_max=0.0 / nal_hrd=vbr / filler=0 / ip_ratio=1.40 / aq=1:0.80
Default                     : Yes
Forced                      : No

Audio #1
ID                          : 2
Format                      : AC-3
Format/Info                 : Audio Coding 3
Commercial name             : Dolby Digital
Codec ID                    : A_AC3
Duration                    : 56 min 24 s
Bit rate mode               : Constant
Bit rate                    : 192 kb/s
Channel(s)                  : 2 channels
Channel layout              : L R
Sampling rate               : 48.0 kHz
Frame rate                  : 31.250 FPS (1536 SPF)
Bit depth                   : 16 bits
Compression mode            : Lossy
Stream size                 : 77.5 MiB (4%)
Title                       : NewStudio
Language                    : Russian
Service kind                : Complete Main
Default                     : Yes
Forced                      : No

Audio #2
ID                          : 3
Format                      : E-AC-3
Format/Info                 : Enhanced AC-3
Commercial name             : Dolby Digital Plus
Codec ID                    : A_EAC3
Duration                    : 53 min 56 s
Bit rate mode               : Constant
Bit rate                    : 640 kb/s
Channel(s)                  : 6 channels
Channel layout              : L R C LFE Ls Rs
Sampling rate               : 48.0 kHz
Frame rate                  : 31.250 FPS (1536 SPF)
Compression mode            : Lossy
Stream size                 : 247 MiB (12%)
Language                    : German
Service kind                : Complete Main
Default                     : No
Forced                      : No

Text #1
ID                          : 4
Format                      : UTF-8
Codec ID                    : S_TEXT/UTF8
Codec ID/Info               : UTF-8 Plain Text
Duration                    : 45 min 53 s
Bit rate                    : 52 b/s
Count of elements           : 368
Stream size                 : 17.7 KiB (0%)
Title                       : FOCS
Language                    : Russian
Default                     : No
Forced                      : No

Text #2
ID                          : 5
Format                      : UTF-8
Codec ID                    : S_TEXT/UTF8
Codec ID/Info               : UTF-8 Plain Text
Duration                    : 45 min 44 s
Bit rate                    : 38 b/s
Count of elements           : 382
Stream size                 : 12.8 KiB (0%)
Language                    : German
Default                     : No
Forced                      : No

Menu
00:04:33.625                : en:Intro start
00:05:54.834                : en:Intro end



скриншот  скриншот  скриншот  
pb.wtf



Скачать Тьма через торрент https://i110.fastpic.ru/big/2019/0702/83/4fe6942bdc633cb7b7a66541a9572583.png Скачать фильм Тьма через торрент бесплантно в хорошем качестве Описание: История четырёх семей, живущих спокойной и размеренной жизнью в маленьком немецком городке. Видимая идиллия рушится, когда ... 10 10 5
Info! Золотая раздача, скачанное не засчитывается.
Торрент: Зарегистрирован [2019-07-03 03:37] · скачан: 417 раз
Статус: √ проверено
Размер: 18.02 GB
Как cкачать? Как скачать Тьма через торрент | qTorrent

% Раздел Тема Автор DL S | L
Зарубежные сериалы [ 124.7 GB ] Тьма / Dark / Сезон: 2 / Серии: 1-8 из 8 [2019 UHD WEBRip 2160p] [SDR] MVO [HDRezka Studio] bober100 Скачать
1 | 0
Зарубежные сериалы [ 6.31 GB ] Тьма / Dark / Сезон: 2 / Серии: 1-8 из 8 [2019 WEB-DLRip] DVO [Кубик в Кубе] bober100 Скачать
3 | 0
Зарубежные сериалы [ 9.87 GB ] Тьма / Dark / Сезон: 2 / Серии: 1-8 из 8 [2019 WEB-DL 720p] DVO [Кубик в Кубе] bober100 Скачать
4 | 1
Зарубежные сериалы [ 6.31 GB ] Тьма / Dark / Сезон: 2 / Серии: 1-8 из 8 [2019 WEBRip] MVO [NewStudio] bober100 Скачать
2 | 0
Зарубежные сериалы [ 20.05 GB ] Тьма / Dark / Сезон: 2 / Серии: 1-8 из 8 [2019 WEB-DL 1080p] [MVO] killermax2013 Скачать
2 | 0
Зарубежные сериалы [ 5.19 GB ] Тьма / Dark / Сезон: 2 / Серии: 1-8 из 8 [2019 WEBRip] [MVO] killermax2013 Скачать
1 | 0

28-11-2019 20:33  

Отключить всю рекламу на сайте

24-07-2020 21:41 Тьма Скачать торрент  

Добавьте , пожалуйста, во 2сезон 2160Р озвучку от Lost или New Studiopb.wtf



    Дорогой пользователь! Огромная просьба, поблагодарите релизера, оцените раздачу и оставьте свои комментарий, если Вы скачали Тьма через торрент бесплатно! Внесите свою лепту в развитие PiratBit!
    Комментировать посты могут только пользователи прошедшие не сложную регистрацию
    Показать сообщения:    

    Тьма через торрент
    Скачать бесплатно Тьма
    Тьма скачать торрент
    Тьма смотреть онлайн
    Cкачать фильм Тьма бесплатно
    Тьма скачать торрент в хорошем качестве
    Тьма смотреть онлайн бесплатно в хорошем качестве


    Вы не можете начинать темы
    Вы не можете отвечать на сообщения
    Вы не можете редактировать свои сообщения
    Вы не можете удалять свои сообщения
    Вы не можете голосовать в опросах
    Вы не можете прикреплять файлы к сообщениям
    Вы можете скачивать файлы