Ссылка на приватное зеркало всего за 1$. Внимание количество ограничено!!!

iTunes

iTunes

iTunes

1

iTunes

iTunes

iTunes

iTunes

iTunes

30
pack

Новость дня

ВАЖНО

!!Акция!!

Alien_RageХит недели

RePack

Resident Evil 21

ИГРА 18+

pack

RePack

jed

!!Акция!!

Alien_Rage

RePack

fifa19

RePack

Assassins Creed: Odyssey

RePack

NEED FOR SPEED™ PAYBACK

4 сезон

9 сезон

Бесстыжие 9 сезон

Все сериалы

все сериалы на PB.wtf

RePack

FAR CRY 5
  

Полустанок (Борис Барнет) [1963, СССР, мелодрама, комедия, DVDRip от AVP Studio] pb.wtf

Полустанок через торрент pb.wtf

Раздают: 1 [ 0 KB/s ]
Размер: 743 MB | Добавлен: 10 мес. назад | Торрент скачан:19 раз
Скачать  

03-07-2019 07:41 Полустанок Скачать торрент  

Полустанок
Страна: СССР
Производство: Мосфильм

Жанр: мелодрама, комедия
Год выпуска: 1963
Продолжительность: 01:06:45

Перевод: Не требуется
Cубтитры: нет
Оригинальная аудиодорожка: русский

Режиссер: Борис Барнет

В ролях:
Василий Меркурьев, Екатерина Мазурова, Надежда Румянцева, Борис Новиков, Ада Березовская, Елизавета Никищихина, Александр Потапов, Валерий Рыжаков, А. Орловская, Коля Богатырев, Люда Чистякова, Андрюша Титов...
Об актёрах подробней

Описание:
Известный ученый Павел Павлович однажды решил провести свой отпуск так, как мечтал всю жизнь: взять с собой акварель, остановиться в какой-нибудь симпатичной деревушке и рисовать по утрам под щебет птиц и крик петухов. Академик сошел на полустанке и вскоре стал участником бурных событий колхозной жизни...

Источник: DVD5 R5
Качество видео: DVDRip
Формат видео: AVI

Видео: 704х528 (4:3), 25,000 fps, XviD ~ 1355 kbps avg, 0.146 bit/pixel
Аудио: 48 kHz, Dolby Digital AC3 2.0, 192 kbps

Раздача от:
Общее
Полное имя : Polustanok.1963.DVDRip_[New-team]_by_AVP_Studio.avi
Формат : AVI
Формат/Информация : Audio Video Interleave
Размер файла : 743 Мбайт
Продолжительность : 1 ч. 6 м.
Общий поток : 1557 Кбит/сек
Программа кодирования : VirtualDubMod 1.5.10.3 | www.virtualdub-fr.org || (build 2550/release)
Библиотека кодирования : VirtualDubMod build 2550/release

Видео
Идентификатор : 0
Формат : MPEG-4 Visual
Профиль формата : Advanced Simple@L5
Настройки формата : BVOP1 / Custom Matrix
Параметр BVOP формата : 1
Параметр QPel формата : Нет
Параметр GMC формата : Без точки перехода
Параметр матрицы формата : Выборочная
Идентификатор кодека : XVID
Идентификатор кодека/Подсказка : XviD
Продолжительность : 1 ч. 6 м.
Битрейт : 1355 Кбит/сек
Ширина : 704 пикселя
Высота : 528 пикселей
Соотношение сторон : 4:3
Частота кадров : 25,000 кадров/сек
Цветовое пространство : YUV
Субдискретизация насыщенности : 4:2:0
Битовая глубина : 8 бит
Тип развёртки : Прогрессивная
Метод сжатия : С потерями
Бит/(Пиксели*Кадры) : 0.146
Размер потока : 647 Мбайт (87%)
Библиотека кодирования : XviD 73

Аудио
Идентификатор : 1
Формат : AC-3
Формат/Информация : Audio Coding 3
Коммерческое название : Dolby Digital
Идентификатор кодека : 2000
Продолжительность : 1 ч. 6 м.
Вид битрейта : Постоянный
Битрейт : 192 Кбит/сек
Каналы : 2 канала
ChannelLayout : L R
Частота : 48,0 КГц
Частота кадров : 31,250 кадров/сек (1536 SPF)
Битовая глубина : 16 бит
Метод сжатия : С потерями
Размер потока : 91,7 Мбайт (12%)
Выравнивание : Разделение по промежуткам
Продолжительность промежутка : 40 мс. (1,00 видеокадр)
Время предзагрузки промежутка : 500 мс.
pb.wtf



Скачать Полустанок через торрент http://c.radikal.ru/c09/1911/a9/a76825b4883a.png Скачать фильм Полустанок через торрент бесплантно в хорошем качестве Описание:Известный ученый Павел Павлович однажды решил провести свой отпуск так, как мечтал всю жизнь: взять с собой акварель, остановиться ... 5 10 1
Info! Золотая раздача, скачанное не засчитывается.
Торрент: Зарегистрирован [2019-07-03 07:41] · скачан: 19 раз
Статус: √ проверено
Размер: 743 MB
Как cкачать? Как скачать Полустанок через торрент | qTorrent

% Раздел Тема Автор DL S | L
Кино СССР [ 745 MB ] Полустанок [1963 СССР DVDRip-AVC от AVP Studio] AVP Studio Скачать
5 | 0

28-11-2019 20:33  

Отключить всю рекламу на сайте

    Дорогой пользователь! Огромная просьба, поблагодарите релизера, оцените раздачу и оставьте свои комментарий, если Вы скачали Полустанок через торрент бесплатно! Внесите свою лепту в развитие PiratBit!
    Комментировать посты могут только пользователи прошедшие не сложную регистрацию
    Показать сообщения:    

    Полустанок через торрент
    Скачать бесплатно Полустанок
    Полустанок скачать торрент
    Полустанок смотреть онлайн
    Cкачать фильм Полустанок бесплатно
    Полустанок скачать торрент в хорошем качестве
    Полустанок смотреть онлайн бесплатно в хорошем качестве


    Вы не можете начинать темы
    Вы не можете отвечать на сообщения
    Вы не можете редактировать свои сообщения
    Вы не можете удалять свои сообщения
    Вы не можете голосовать в опросах
    Вы не можете прикреплять файлы к сообщениям
    Вы можете скачивать файлы