новый адрес
Ссылка на приватное зеркало всего за 1$. Внимание количество ограничено!!!

iTunes

1+1

iTunes

мы

WEB-DL

1

iTunes

Чернобыль

iTunes

Ральф против интернета

Лицензия

ПШазам

Лицензия

Оно 2

Лицензия

30
pack

Вам бонус

ВАЖНО

!!Акция!!

Alien_RageХит недели

RePack

Resident Evil 21

ИГРА 18+

pack

RePack

jed

!!Акция!!

Alien_Rage

RePack

fifa19

RePack

Assassins Creed: Odyssey

RePack

NEED FOR SPEED™ PAYBACK

3 сезон

9 сезон

Бесстыжие 9 сезон

Все сериалы

все сериалы на PB.wtf

RePack

FAR CRY 5
Ребята, катастрофически не хватает 1900р. для оплаты серверов за Октябрь (всвязи с блокировками трафик упал в 3 раза), 1-2р., выручайте.
  

Кладбище домашних животных / Pet Sematary (Кевин Колш , Деннис Уидмайер) [2019, ужасы, триллер, BDRip-AVC] DUB [Лицензия] + 2xMVO pb.wtf

Кладбище домашних животных через торрент pb.wtf

Раздают: 4 [ 0 KB/s ]
Размер: 2.19 GB | Добавлен: 5 мес. 8 д. назад | Торрент скачан:280 раз
Скачать  

03-07-2019 08:44 Кладбище домашних животных Скачать торрент  

Кладбище домашних животных / Pet Sematary««Мёртвые должны оставаться мёртвыми»»

Год выпуска: 2019
Страна: США
Жанр: ужасы, триллер
Продолжительность: 01:40:49
Перевод: Дублированный, профессиональный многоголосый
Субтитры: Русские (форс., полные), английские (полные, SDH)
Режиссер: Кевин Колш , Деннис Уидмайер
В ролях:

Джейсон Кларк (Louis), Эми Саймец (Rachel), Джон Литгоу (Jud), Жете Лоранс (Ellie), Хьюго Лавуа (Gage), Лукас Лавуа (Gage), Обсса Ахмед (Victor Pascow), Алисса Брук Ливайн (Zelda), Мария Херрера (Marcella), Фрэнк Скорпион (Rachel's Father), Линда Е. Смит (Rachel's Mother), Соня Мария Чирила (Young Rachel)
Описание:
Семья Луиса Крида переезжает в сельский дом, который, как выясняется, расположен по соседству с мрачным Кладбищем домашних животных. Именно здесь по совету соседа Луис хоронит кота Чёрча - любимца семьи, погибшего под колесами грузовика. Вскоре кот возвращается к любящему семейству, но, кажется, это уже не тот ласковый питомец, которого так любила дочь Луиса.
Рейтинг:

MPAA: R - Лицам до 17 лет обязательно присутствие взрослого
Качество: BDRip-AVC
Формат: MKV
Видео: 1024x428 (2.40:1), 23,976 fps, x264 ~1 827 kbps avg, 0.174 bit/pixel
Аудио #1: 48 kHz, AC3 Dolby Digital Plus, 3/2 (L,C,R,l,r) + LFE ch, ~448.00 kbps avg | RUS (Лицензия)
Аудио #2: 48 kHz, AC3 Dolby Digital, 2 (L,R) ch, ~192.00 kbps avg | RUS (HDRezka Studio)
Аудио #3: 48 kHz, AC3 Dolby Digital, 2 (L,R) ch, ~256.00 kbps avg | RUS (СВ Студия)
Аудио #4: 48 kHz, AC3 Dolby Digital Plus, 3/2 (L,C,R,l,r) + LFE ch, ~448.00 kbps avg | ENG
Навигация по главам: есть

Общее
Уникальный идентификатор : 320678152659131501142000507713861983311 (0xF1405D9CA919B734DAF0679B7BFC1C4F)
Полное имя : F:OlLanDGroupPet.Sematary.2019.BDRip(AVC).OlLanDGroup.mkv
Формат : Matroska
Версия формата : Version 4 / Version 2
Размер файла : 2,19 Гбайт
Продолжительность : 1 ч. 40 м.
Общий поток : 3107 Кбит/сек
Название фильма : Pet Sematary 2019 #TorpedoUK#
Дата кодирования : UTC 2019-07-02 08:55:43
Программа кодирования : mkvmerge v29.0.0 ('Like It Or Not') 64-bit
Библиотека кодирования : libebml v1.3.6 + libmatroska v1.4.9

Видео
Идентификатор : 1
Формат : AVC
Формат/Информация : Advanced Video Codec
Профиль формата : High@L4.1
Параметр CABAC формата : Да
Параметр ReFrames формата : 10 кадров
Идентификатор кодека : V_MPEG4/ISO/AVC
Продолжительность : 1 ч. 40 м.
Битрейт : 1827 Кбит/сек
Ширина : 1024 пикселя
Высота : 428 пикселей
Соотношение сторон : 2,40:1
Режим частоты кадров : Постоянный
Частота кадров : 23,976 (24000/1001) кадра/сек
Цветовое пространство : YUV
Субдискретизация насыщенности : 4:2:0
Битовая глубина : 8 бит
Тип развёртки : Прогрессивная
Бит/(Пиксели*Кадры) : 0.174
Размер потока : 1,29 Гбайт (59%)
Библиотека кодирования : x264 core 146 r2538 121396c
Настройки программы : cabac=1 / ref=10 / deblock=1:-3:-3 / analyse=0x3:0x113 / me=umh / subme=11 / psy=1 / psy_rd=1.00:0.03 / mixed_ref=1 / me_range=48 / chroma_me=1 / trellis=2 / 8x8dct=1 / cqm=0 / deadzone=21,11 / fast_pskip=1 / chroma_qp_offset=-3 / threads=6 / lookahead_threads=1 / sliced_threads=0 / nr=0 / decimate=1 / interlaced=0 / bluray_compat=0 / constrained_intra=0 / bframes=11 / b_pyramid=2 / b_adapt=2 / b_bias=0 / direct=3 / weightb=1 / open_gop=0 / weightp=2 / keyint=240 / keyint_min=23 / scenecut=40 / intra_refresh=0 / rc_lookahead=40 / rc=2pass / mbtree=0 / bitrate=1827 / ratetol=1.0 / qcomp=0.60 / qpmin=0 / qpmax=69 / qpstep=4 / cplxblur=20.0 / qblur=0.5 / vbv_maxrate=50000 / vbv_bufsize=62500 / nal_hrd=none / filler=0 / ip_ratio=1.40 / pb_ratio=1.30 / aq=1:1.00
Язык : English
Default : Да
Forced : Нет

Аудио #1
Идентификатор : 2
Формат : AC-3
Формат/Информация : Audio Coding 3
Расширение режима : CM (complete main)
Параметр Endianness формата : Big
Идентификатор кодека : A_AC3
Продолжительность : 1 ч. 40 м.
Вид битрейта : Постоянный
Битрейт : 448 Кбит/сек
Каналы : 6 каналов
Расположение каналов : Front: L C R, Side: L R, LFE
Частота : 48,0 КГц
Частота кадров : 31,250 кадров/сек (1536 spf)
Битовая глубина : 16 бит
Метод сжатия : С потерями
Размер потока : 323 Мбайт (14%)
Заголовок : DUB [License]
Язык : Russian
Default : Да
Forced : Нет

Аудио #2
Идентификатор : 3
Формат : AC-3
Формат/Информация : Audio Coding 3
Расширение режима : CM (complete main)
Параметр Endianness формата : Big
Идентификатор кодека : A_AC3
Продолжительность : 1 ч. 40 м.
Вид битрейта : Постоянный
Битрейт : 192 Кбит/сек
Каналы : 2 канала
Расположение каналов : Front: L R
Частота : 48,0 КГц
Частота кадров : 31,250 кадров/сек (1536 spf)
Битовая глубина : 16 бит
Метод сжатия : С потерями
Размер потока : 138 Мбайт (6%)
Заголовок : MVO [HDRezka Studio]
Язык : Russian
Default : Нет
Forced : Нет

Аудио #3
Идентификатор : 4
Формат : AC-3
Формат/Информация : Audio Coding 3
Расширение режима : CM (complete main)
Параметр Endianness формата : Big
Идентификатор кодека : A_AC3
Продолжительность : 1 ч. 40 м.
Вид битрейта : Постоянный
Битрейт : 192 Кбит/сек
Каналы : 2 канала
Расположение каналов : Front: L R
Частота : 48,0 КГц
Частота кадров : 31,250 кадров/сек (1536 spf)
Битовая глубина : 16 бит
Метод сжатия : С потерями
Размер потока : 138 Мбайт (6%)
Заголовок : MVO [СВ Студия]
Язык : Russian
Default : Нет
Forced : Нет

Аудио #4
Идентификатор : 5
Формат : AC-3
Формат/Информация : Audio Coding 3
Расширение режима : CM (complete main)
Параметр Endianness формата : Big
Идентификатор кодека : A_AC3
Продолжительность : 1 ч. 40 м.
Вид битрейта : Постоянный
Битрейт : 448 Кбит/сек
Каналы : 6 каналов
Расположение каналов : Front: L C R, Side: L R, LFE
Частота : 48,0 КГц
Частота кадров : 31,250 кадров/сек (1536 spf)
Битовая глубина : 16 бит
Метод сжатия : С потерями
Размер потока : 323 Мбайт (14%)
Заголовок : [Original]
Язык : English
Default : Нет
Forced : Нет

Текст #1
Идентификатор : 6
Формат : UTF-8
Идентификатор кодека : S_TEXT/UTF8
Идентификатор кодека/Информация : UTF-8 Plain Text
Продолжительность : 1 ч. 14 м.
Битрейт : 1 бит/сек
Count of elements : 15
Размер потока : 732 байт (0%)
Заголовок : Forced
Язык : Russian
Default : Да
Forced : Нет

Текст #2
Идентификатор : 7
Формат : UTF-8
Идентификатор кодека : S_TEXT/UTF8
Идентификатор кодека/Информация : UTF-8 Plain Text
Продолжительность : 1 ч. 40 м.
Битрейт : 50 бит/сек
Count of elements : 869
Размер потока : 37,2 Кбайт (0%)
Заголовок : Full
Язык : Russian
Default : Нет
Forced : Нет

Текст #3
Идентификатор : 8
Формат : UTF-8
Идентификатор кодека : S_TEXT/UTF8
Идентификатор кодека/Информация : UTF-8 Plain Text
Продолжительность : 1 ч. 32 м.
Битрейт : 36 бит/сек
Count of elements : 856
Размер потока : 24,6 Кбайт (0%)
Заголовок : Full
Язык : English
Default : Нет
Forced : Нет

Текст #4
Идентификатор : 9
Формат : UTF-8
Идентификатор кодека : S_TEXT/UTF8
Идентификатор кодека/Информация : UTF-8 Plain Text
Продолжительность : 1 ч. 36 м.
Битрейт : 45 бит/сек
Count of elements : 1211
Размер потока : 32,1 Кбайт (0%)
Заголовок : SDH
Язык : English
Default : Нет
Forced : Нет

Меню
00:00:00.000 : en:Chapter 01
00:07:16.353 : en:Chapter 02
00:12:14.025 : en:Chapter 03
00:19:38.386 : en:Chapter 04
00:25:30.070 : en:Chapter 05
00:30:09.725 : en:Chapter 06
00:35:18.325 : en:Chapter 07
00:46:02.843 : en:Chapter 08
00:50:44.792 : en:Chapter 09
00:57:47.964 : en:Chapter 10
01:06:57.722 : en:Chapter 11
01:14:12.573 : en:Chapter 12
01:22:52.009 : en:Chapter 13
01:32:19.909 : en:Chapter 14
01:36:41.295 : en:Chapter 15
pb.wtf



Скачать Кладбище домашних животных через торрент https://c.radikal.ru/c25/1906/e5/2467a0c8df80.png Скачать фильм Кладбище домашних животных через торрент бесплантно в хорошем качестве Описание: Семья Луиса Крида переезжает в сельский дом, который, как выясняется, расположен по соседству с мрачным Кладбищем домашних ... 10 10 3
Торрент: Зарегистрирован [2019-07-03 08:44] · скачан: 280 раз
Статус: √ проверено
Размер: 2.19 GB
Как cкачать? Как скачать Кладбище домашних животных через торрент | qTorrent

% Раздел Тема Автор DL S | L
Фильмы [HD 720p, 1080p] (Хороший звук DUB, MVO) [ 14.39 GB ] Кладбище домашних животных / Pet Sematary [2019 BDRip 1080p] DUB [] + 2xMVO sheker187 Скачать
4 | 0
Фильмы (Blu-ray, BD-Remux, HDDVD) [ 22.63 GB ] Кладбище домашних животных / Pet Sematary [2019 BDRemux 1080p] DUB [] + 2xMVO sheker187 Скачать
2 | 0
Ultra HD (UHD: 2K, 4K, 8K) — видео сверхвысокой чёткости [ 31.51 GB ] Кладбище домашних животных / Pet Sematary [2019 UHD BDRip 2160p] [SDR] DUB [] + 2xMVO sheker187 Скачать
1 | 0
Ultra HD (UHD: 2K, 4K, 8K) — видео сверхвысокой чёткости [ 16.81 GB ] Кладбище домашних животных / Pet Sematary [2019 UHD BDRip 2160p] DUB [] + 2xMVO sheker187 Скачать
1 | 0
Фильмы [HD 720p, 1080p] (Хороший звук DUB, MVO) [ 5.04 GB ] Кладбище домашних животных / Pet Sematary [2019 BDRip 720p] DUB [] + 2xMVO sheker187 Скачать
3 | 0
Ultra HD (UHD: 2K, 4K, 8K) — видео сверхвысокой чёткости [ 45.25 GB ] Кладбище домашних животных / Pet Sematary [2019 UHD BDRemux 2160p] DUB [] + 2xMVO sheker187 Скачать
2 | 0
Ultra HD (UHD: 2K, 4K, 8K) — видео сверхвысокой чёткости [ 55.06 GB ] Кладбище домашних животных / Pet Sematary [1989 UHD BDRemux 2160p] 3xMVO + 2xDVO + 4xAVO sheker187 Скачать
1 | 0

28-11-2019 20:33  

Отключить всю рекламу на сайте

    Дорогой пользователь! Огромная просьба, поблагодарите релизера, оцените раздачу и оставьте свои комментарий, если Вы скачали Кладбище домашних животных через торрент бесплатно! Внесите свою лепту в развитие PiratBit!
    Комментировать посты могут только пользователи прошедшие не сложную регистрацию
    Показать сообщения:    

    Кладбище домашних животных через торрент
    Скачать бесплатно Кладбище домашних животных
    Кладбище домашних животных скачать торрент
    Кладбище домашних животных смотреть онлайн
    Cкачать фильм Кладбище домашних животных бесплатно
    Кладбище домашних животных скачать торрент в хорошем качестве
    Кладбище домашних животных смотреть онлайн бесплатно в хорошем качестве


    Вы не можете начинать темы
    Вы не можете отвечать на сообщения
    Вы не можете редактировать свои сообщения
    Вы не можете удалять свои сообщения
    Вы не можете голосовать в опросах
    Вы не можете прикреплять файлы к сообщениям
    Вы можете скачивать файлы