Ссылка на приватное зеркало всего за 1$. Внимание количество ограничено!!!

OK

1+1

iTunes

мы

OK

1

WEB-DLRip

Джокер

Пифагор

Ведьмак / The Witcher сериал

Лицензия

ПШазам

ОК

Оно 2

iTunes

30
pack

Вам бонус

ВАЖНО

!!Акция!!

Alien_RageХит недели

RePack

Resident Evil 21

ИГРА 18+

pack

RePack

jed

!!Акция!!

Alien_Rage

RePack

fifa19

RePack

Assassins Creed: Odyssey

RePack

NEED FOR SPEED™ PAYBACK

4 сезон

9 сезон

Бесстыжие 9 сезон

Все сериалы

все сериалы на PB.wtf

RePack

FAR CRY 5
  

План побега 3 / Escape Plan: The Extractors (Джон Херцфелд / John Herzfeld) [2019, боевик, BDRip 720p] [MVO] (СВ Студия) - ExKinoRay pb.wtf

План побега 3 через торрент pb.wtf

Раздают: 57 [ 219 KB/s ] Качают: 1 [ 0 KB/s ]
Размер: 3.97 GB | Добавлен: 6 мес. назад | Торрент скачан:366 раз
Скачать  

03-07-2019 12:29 План побега 3 Скачать торрент  

Название: План побега 3
Оригинальное название: Escape Plan: The Extractors
Год выхода: 2019
Жанр: Боевик
Режиссер: Джон Херцфелд
В ролях: Сильвестр Сталлоне, Дэйв Батиста, 50 Cent, Джейми Кинг, Макс Чжан, Девон Сава, Гарри Шам мл., Расселл Вонг, Дэниэл Бернхард, Лидия Халл

Описание:
Непревзойденный взломщик тюрем Рэй Бреслин опять ввязался в смертельно опасную авантюру: вместе со своей командой он берётся разыскать похищенную дочь своего друга - бизнесмена из Гонконга. Нити расследования приводят к одной из самых секретных тюрем Америки, которая называется «Пункт Дьявола».

rating

Страна: США
Студия: Emmett/Furla/Oasis Films (EFO Films), Leomus Pictures, Twirly Films Limited
Продолжительность: 01:27:34
Перевод: Профессиональный многоголосый | СВ Студия

БЕЗ КАКОЙ-ЛИБО РЕКЛАМЫ!

Формат: MKV
Качество: BDRip 720p
Видео: MPEG-4 AVC, 1280x534 (2.40:1), 23.976 fps, 5215 Kbps, 0.318 bit/pixel
Аудио 1: 48 kHz, AC3, 5.1, 640 Kbps | RUS |
Аудио 2: 48 kHz, AC3, 5.1, 640 Kbps | ENG |

Субтитры: Русские (Full (Enigma)), английские
General
Unique ID : 188880475964314614502042521854943078321 (0x8E190E73F6ED2EF5A0E592DAE6EAA7B1)
Complete name : F:\Escape.Plan.The.Extractors.2019.MVO.BDRip.720p.ExKinoRay.mkv
Format : Matroska
Format version : Version 2
File size : 3.97 GiB
Duration : 1 h 27 min
Overall bit rate : 6 488 kb/s
Movie name : Escape Plan The Extractors 2019 from ExKinoRay
Encoded date : UTC 2019-07-03 11:15:11
Writing application : mkvmerge v5.6.0 ('Kenya Kane') built on May 27 2012 16:44:04
Writing library : libebml v1.2.3 + libmatroska v1.3.0

Video
ID : 1
Format : AVC
Format/Info : Advanced Video Codec
Format profile : High@L4.1
Format settings, CABAC : Yes
Format settings, ReFrames : 12 frames
Codec ID : V_MPEG4/ISO/AVC
Duration : 1 h 27 min
Bit rate : 5 215 kb/s
Width : 1 280 pixels
Height : 534 pixels
Display aspect ratio : 2.40:1
Frame rate mode : Constant
Frame rate : 23.976 (23976/1000) FPS
Color space : YUV
Chroma subsampling : 4:2:0
Bit depth : 8 bits
Scan type : Progressive
Bits/(Pixel*Frame) : 0.318
Stream size : 3.11 GiB (78%)
Title : Enigma
Writing library : x264 core 152 r2851 ba24899
Encoding settings : cabac=1 / ref=12 / deblock=1:-2:-2 / analyse=0x3:0x113 / me=umh / subme=10 / psy=1 / psy_rd=1.00:0.05 / mixed_ref=1 / me_range=32 / chroma_me=1 / trellis=2 / 8x8dct=1 / cqm=0 / deadzone=21,11 / fast_pskip=0 / chroma_qp_offset=-3 / threads=12 / lookahead_threads=3 / sliced_threads=0 / nr=0 / decimate=0 / interlaced=0 / bluray_compat=0 / constrained_intra=0 / bframes=14 / b_pyramid=2 / b_adapt=2 / b_bias=0 / direct=3 / weightb=1 / open_gop=0 / weightp=2 / keyint=240 / keyint_min=23 / scenecut=40 / intra_refresh=0 / rc=2pass / mbtree=0 / bitrate=5215 / ratetol=1.0 / qcomp=0.60 / qpmin=0 / qpmax=51 / qpstep=4 / cplxblur=20.0 / qblur=0.5 / ip_ratio=1.40 / pb_ratio=1.30 / aq=3:0.80
Language : English
Default : Yes
Forced : No
Color range : Limited
Color primaries : BT.709
Transfer characteristics : BT.709
Matrix coefficients : BT.709

Audio #1
ID : 2
Format : AC-3
Format/Info : Audio Coding 3
Mode extension : CM (complete main)
Format settings, Endianness : Big
Codec ID : A_AC3
Duration : 1 h 27 min
Bit rate mode : Constant
Bit rate : 640 kb/s
Channel(s) : 6 channels
Channel positions : Front: L C R, Side: L R, LFE
Sampling rate : 48.0 kHz
Frame rate : 31.250 FPS (1536 spf)
Compression mode : Lossy
Stream size : 401 MiB (10%)
Title : MVO (SV Studio)
Language : Russian
Default : Yes
Forced : No

Audio #2
ID : 3
Format : AC-3
Format/Info : Audio Coding 3
Mode extension : CM (complete main)
Format settings, Endianness : Big
Codec ID : A_AC3
Duration : 1 h 27 min
Bit rate mode : Constant
Bit rate : 640 kb/s
Channel(s) : 6 channels
Channel positions : Front: L C R, Side: L R, LFE
Sampling rate : 48.0 kHz
Frame rate : 31.250 FPS (1536 spf)
Compression mode : Lossy
Stream size : 401 MiB (10%)
Language : English
Default : No
Forced : No

Text #1
ID : 4
Format : UTF-8
Codec ID : S_TEXT/UTF8
Codec ID/Info : UTF-8 Plain Text
Title : Ful (Enigma)
Language : Russian
Default : No
Forced : No

Text #2
ID : 5
Format : UTF-8
Codec ID : S_TEXT/UTF8
Codec ID/Info : UTF-8 Plain Text
Language : English
Default : No
Forced : No

Menu
00:00:00.000 : en:Глава 01
00:04:06.246 : en:Глава 02
00:07:29.324 : en:Глава 03
00:12:32.668 : en:Глава 04
00:19:10.316 : en:Глава 05
00:23:18.313 : en:Глава 06
00:25:24.398 : en:Глава 07
00:31:18.460 : en:Глава 08
00:37:05.640 : en:Глава 09
00:44:02.848 : en:Глава 10
00:47:28.304 : en:Глава 11
00:52:19.511 : en:Глава 12
00:56:14.287 : en:Глава 13
01:03:40.650 : en:Глава 14
01:09:24.869 : en:Глава 15
01:16:48.020 : en:Глава 16
Релиз от:

Автор релиза: pb.wtf



Скачать План побега 3 через торрент https://i106.fastpic.ru/big/2019/0626/7e/3386bd1d4ec67fd3e2e89a960f468b7e.jpg Скачать фильм План побега 3 через торрент бесплантно в хорошем качестве Описание:Непревзойденный взломщик тюрем Рэй Бреслин опять ввязался в смертельно опасную авантюру: вместе со своей командой он берётся ... 9.3 10 14
Info! Золотая раздача, скачанное не засчитывается.
Торрент: Зарегистрирован [2019-07-03 12:29] · скачан: 366 раз
Статус: √ проверено
Размер: 3.97 GB
Как cкачать? Как скачать План побега 3 через торрент | qTorrent

% Раздел Тема Автор DL S | L
Фильмы 2019-2020 [DVDrip, WEB-DLRip, HDrip] (DUB, MVO) [ 1.74 GB ] План побега 3 / Escape Plan: The Extractors [2019 HDRip-AVC] [MVO] - ExKinoRay Enigma2010 Скачать
43 | 0

28-11-2019 20:33  

Отключить всю рекламу на сайте

03-07-2019 20:37 План побега 3 Скачать торрент  

Обложка лучше фильма.Дешёвенький трешь.. pb.wtf



    Дорогой пользователь! Огромная просьба, поблагодарите релизера, оцените раздачу и оставьте свои комментарий, если Вы скачали План побега 3 через торрент бесплатно! Внесите свою лепту в развитие PiratBit!
    Комментировать посты могут только пользователи прошедшие не сложную регистрацию
    Показать сообщения:    

    План побега 3 через торрент
    Скачать бесплатно План побега 3
    План побега 3 скачать торрент
    План побега 3 смотреть онлайн
    Cкачать фильм План побега 3 бесплатно
    План побега 3 скачать торрент в хорошем качестве
    План побега 3 смотреть онлайн бесплатно в хорошем качестве


    Вы не можете начинать темы
    Вы не можете отвечать на сообщения
    Вы не можете редактировать свои сообщения
    Вы не можете удалять свои сообщения
    Вы не можете голосовать в опросах
    Вы не можете прикреплять файлы к сообщениям
    Вы можете скачивать файлы