новый адрес
Ссылка на приватное зеркало всего за 1$. Внимание количество ограничено!!!

iTunes

1+1

iTunes

мы

WEB-DL

1

iTunes

Чернобыль

iTunes

Ральф против интернета

Лицензия

ПШазам

Лицензия

Оно 2

Лицензия

30
pack

Вам бонус

ВАЖНО

!!Акция!!

Alien_RageХит недели

RePack

Resident Evil 21

ИГРА 18+

pack

RePack

jed

!!Акция!!

Alien_Rage

RePack

fifa19

RePack

Assassins Creed: Odyssey

RePack

NEED FOR SPEED™ PAYBACK

3 сезон

9 сезон

Бесстыжие 9 сезон

Все сериалы

все сериалы на PB.wtf

RePack

FAR CRY 5
Ребята, катастрофически не хватает 1900р. для оплаты серверов за Октябрь (всвязи с блокировками трафик упал в 3 раза), 1-2р., выручайте.
  

Капитан Марвел / Captain Marvel (Анна Боден / Anna Boden, Райан Флек / Ryan Fleck) [2019, фантастика, боевик, приключения, BDRip-AVC] [IMAX] [Dub] pb.wtf

Капитан Марвел через торрент pb.wtf

Раздают: 4 [ 0 KB/s ]
Размер: 2.94 GB | Добавлен: 5 мес. 4 д. назад | Торрент скачан:461 раз
Скачать  

04-07-2019 15:31 Капитан Марвел Скачать торрент  

Капитан Марвел
Captain Marvel

«Быстрее. Выше. Сильнее»

Страна: США
Жанр: фантастика, боевик, приключения
Год выпуска: 2019
Продолжительность: 02:03:42

Перевод: Профессиональный (полное дублирование) [Blu-ray EUR]
Субтитры: русские (форсированные, полные, SDH), английские (полные, SDH, SDH цветные)
Оригинальная аудиодорожка: английский

Режиссер: Анна Боден / Anna Boden, Райан Флек / Ryan Fleck

В ролях: Бри Ларсон, Сэмюэл Л. Джексон, Бен Мендельсон, Джуд Лоу, Аннетт Бенинг, Джимон Хонсу, Ли Пейс, Лашана Линч, Джемма Чан, Кларк Грегг

Описание: После столкновения с враждующими инопланетными расами, пилот военно-воздушных сил Кэрол Дэнверс обретает суперсилу и становится неуязвимой. Героине предстоит совладать со своими новыми способностями, чтобы противостоять могущественному врагу.



Релиз:

Автор рипа: stalkerok

Примечание: Рип сделан с Blu-Ray 3D IMAX исходника, периодически присутствуют чёрные полосы по бокам.

Сэмпл

Качество видео: BDRip-AVC | Исходник: Captain Marvel 2019 1080p 3D EUR Blu-ray AVC DTS-HD MA 7.1-CYBER
Формат видео: MKV
Видео кодек: AVC
Аудио кодек: AC3
Видео: AVC, 2569 Кбит/сек, 1152x608 (1.895), 23,976 кадр/сек
Аудио №1: AC3, 448 Кбит/сек, 48 КГц, 5.1 - русский
Аудио №2: AC3, 384 Кбит/сек, 48 КГц, 5.1 - английский
Навигация по главам: есть
---[Information] [04.07.2019 16:31:31] x264 [info]: frame I:1513 Avg QP:12.74 size: 72838
---[Information] [04.07.2019 16:31:31] x264 [info]: frame P:40228 Avg QP:15.50 size: 28943
---[Information] [04.07.2019 16:31:31] x264 [info]: frame B:136216 Avg QP:17.36 size: 8146

General
Unique ID : 243572692150901072715528986581404118031 (0xB73E64E6AD2C62A1E29365ADF1D66C0F)
Complete name : C:\temp\Captain Marvel\Captain.Marvel.2019.BDRip.x264.Rus.Eng.stalkerok.New-Team.mkv
Format : Matroska
Format version : Version 4
File size : 2.94 GiB
Duration : 2 h 3 min
Overall bit rate : 3 404 kb/s
Movie name : Captain Marvel (2019) | Rip by stalkerok
Encoded date : UTC 2019-07-04 15:16:13
Writing application : mkvmerge v33.1.0 ('Primrose') 64-bit
Writing library : libebml v1.3.7 + libmatroska v1.5.0

Video
ID : 1
Format : AVC
Format/Info : Advanced Video Codec
Format profile : High@L4.1
Format settings : CABAC / 11 Ref Frames
Format settings, CABAC : Yes
Format settings, RefFrames : 11 frames
Codec ID : V_MPEG4/ISO/AVC
Duration : 2 h 3 min
Bit rate : 2 570 kb/s
Width : 1 152 pixels
Height : 608 pixels
Display aspect ratio : 1.895
Frame rate mode : Constant
Frame rate : 23.976 FPS
Color space : YUV
Chroma subsampling : 4:2:0
Bit depth : 8 bits
Scan type : Progressive
Bits/(Pixel*Frame) : 0.153
Stream size : 2.22 GiB (75%)
Title : Captain Marvel (2019) | Rip by stalkerok
Writing library : x264 core 157 r2945 72db437
Encoding settings : cabac=1 / ref=11 / deblock=1:-3:-2 / analyse=0x3:0x133 / me=umh / subme=10 / psy=1 / psy_rd=1.00:0.00 / mixed_ref=1 / me_range=32 / chroma_me=1 / trellis=2 / 8x8dct=1 / cqm=0 / deadzone=21,11 / fast_pskip=0 / chroma_qp_offset=-2 / threads=12 / lookahead_threads=3 / sliced_threads=0 / nr=0 / decimate=1 / interlaced=0 / bluray_compat=0 / constrained_intra=0 / bframes=14 / b_pyramid=2 / b_adapt=2 / b_bias=0 / direct=3 / weightb=1 / open_gop=0 / weightp=2 / keyint=240 / keyint_min=23 / scenecut=40 / intra_refresh=0 / rc_lookahead=60 / rc=crf / mbtree=0 / crf=17.2 / qcomp=0.65 / qpmin=0 / qpmax=69 / qpstep=4 / vbv_maxrate=50000 / vbv_bufsize=62500 / crf_max=0.0 / nal_hrd=none / filler=0 / ip_ratio=1.40 / pb_ratio=1.30 / aq=3:0.80 / zones=166840,176759,q=30
Default : Yes
Forced : No

Audio #1
ID : 2
Format : AC-3
Format/Info : Audio Coding 3
Commercial name : Dolby Digital
Codec ID : A_AC3
Duration : 2 h 3 min
Bit rate mode : Constant
Bit rate : 448 kb/s
Channel(s) : 6 channels
Channel layout : L R C LFE Ls Rs
Sampling rate : 48.0 kHz
Frame rate : 31.250 FPS (1536 SPF)
Bit depth : 16 bits
Compression mode : Lossy
Stream size : 396 MiB (13%)
Language : Russian
Service kind : Complete Main
Default : Yes
Forced : No

Audio #2
ID : 3
Format : AC-3
Format/Info : Audio Coding 3
Commercial name : Dolby Digital
Codec ID : A_AC3
Duration : 2 h 3 min
Bit rate mode : Constant
Bit rate : 384 kb/s
Channel(s) : 6 channels
Channel layout : L R C LFE Ls Rs
Sampling rate : 48.0 kHz
Frame rate : 31.250 FPS (1536 SPF)
Bit depth : 16 bits
Compression mode : Lossy
Stream size : 340 MiB (11%)
Language : English
Service kind : Complete Main
Default : No
Forced : No

Text #1
ID : 4
Format : UTF-8
Codec ID : S_TEXT/UTF8
Codec ID/Info : UTF-8 Plain Text
Duration : 1 h 55 min
Bit rate : 1 b/s
Count of elements : 17
Stream size : 937 Bytes (0%)
Title : Forced
Language : Russian
Default : Yes
Forced : No

Text #2
ID : 5
Format : UTF-8
Codec ID : S_TEXT/UTF8
Codec ID/Info : UTF-8 Plain Text
Duration : 2 h 2 min
Bit rate : 65 b/s
Count of elements : 1314
Stream size : 58.8 KiB (0%)
Title : Full
Language : Russian
Default : No
Forced : No

Text #3
ID : 6
Format : UTF-8
Codec ID : S_TEXT/UTF8
Codec ID/Info : UTF-8 Plain Text
Duration : 2 h 2 min
Bit rate : 77 b/s
Count of elements : 1637
Stream size : 69.2 KiB (0%)
Title : SDH
Language : Russian
Default : No
Forced : No

Text #4
ID : 7
Format : UTF-8
Codec ID : S_TEXT/UTF8
Codec ID/Info : UTF-8 Plain Text
Duration : 2 h 3 min
Bit rate : 44 b/s
Count of elements : 1426
Stream size : 40.0 KiB (0%)
Title : Full
Language : English
Default : No
Forced : No

Text #5
ID : 8
Format : UTF-8
Codec ID : S_TEXT/UTF8
Codec ID/Info : UTF-8 Plain Text
Duration : 2 h 3 min
Bit rate : 50 b/s
Count of elements : 1670
Stream size : 45.3 KiB (0%)
Title : SDH
Language : English
Default : No
Forced : No

Text #6
ID : 9
Format : UTF-8
Codec ID : S_TEXT/UTF8
Codec ID/Info : UTF-8 Plain Text
Duration : 2 h 3 min
Bit rate : 64 b/s
Count of elements : 1670
Stream size : 58.2 KiB (0%)
Title : SDH Colored
Language : English
Default : No
Forced : No

Menu
00:00:00.000 : :Chapter 01
00:06:52.120 : :Chapter 02
00:14:07.888 : :Chapter 03
00:23:18.271 : :Chapter 04
00:29:38.026 : :Chapter 05
00:35:07.772 : :Chapter 06
00:44:08.437 : :Chapter 07
00:50:43.498 : :Chapter 08
00:56:18.625 : :Chapter 09
01:03:02.820 : :Chapter 10
01:11:17.398 : :Chapter 11
01:17:49.164 : :Chapter 12
01:27:03.051 : :Chapter 13
01:33:22.430 : :Chapter 14
01:40:51.795 : :Chapter 15
01:46:25.087 : :Chapter 16
01:52:49.888 : :Chapter 17
pb.wtf



Скачать Капитан Марвел через торрент http://i6.imageban.ru/out/2017/09/18/2ff75c0c358795c5946784cc1680714d.png Скачать фильм Капитан Марвел через торрент бесплантно в хорошем качестве Описание: После столкновения с враждующими инопланетными расами, пилот военно-воздушных сил Кэрол Дэнверс обретает суперсилу и становится ... 9.9 10 10
Info! Золотая раздача, скачанное не засчитывается.
Торрент: Зарегистрирован [2019-07-04 15:31] · скачан: 461 раз
Статус: √ проверено
Размер: 2.94 GB
Как cкачать? Как скачать Капитан Марвел через торрент | qTorrent

% Раздел Тема Автор DL S | L
Фильмы 2019 [DVDrip, WEB-DLRip, HDrip] (DUB, MVO) [ 2.27 GB ] Капитан Марвел / Captain Marvel [2019 BDRip-AVC Dub MVO] от ExKinoRay morfyi Скачать
23 | 0
Фильмы 2019 [DVDrip, WEB-DLRip, HDrip] (DUB, MVO) [ 2.18 GB ] Капитан Марвел / Captain Marvel [2019 BDRip] - [] Twi7ter Скачать
80 | 9
Официальные cаундтреки к зарубежным фильмам [ 1.2 GB ] OST - Капитан Марвел / Captain Marvel 2019 / FLAC / lossless / Score bober100 Скачать
1 | 0
Официальные cаундтреки к зарубежным фильмам [ 157 MB ] OST - Капитан Марвел / Captain Marvel 2019 / MP3 / 320 kbps / Score bober100 Скачать
1 | 0
Фильмы 2019 [DVDrip, WEB-DLRip, HDrip] (DUB, MVO) [ 1.45 GB ] Капитан Марвел / Captain Marvel [2019 WEB-DLRip] [Локализованная версия / Open Matte] killermax2013 Скачать
10 | 0
Фильмы (Blu-ray, BD-Remux, HDDVD) [ 40.51 GB ] Капитан Марвел / Captain Marvel [2019 Blu-ray EUR 1080p] DUB [] sheker187 Скачать
1 | 0
Ultra HD (UHD: 2K, 4K, 8K) — видео сверхвысокой чёткости [ 59.06 GB ] Капитан Марвел / Captain Marvel [2019 UHD Blu-ray 2160p] DUB [] sheker187 Скачать
2 | 0

28-11-2019 20:33  

Отключить всю рекламу на сайте

    Дорогой пользователь! Огромная просьба, поблагодарите релизера, оцените раздачу и оставьте свои комментарий, если Вы скачали Капитан Марвел через торрент бесплатно! Внесите свою лепту в развитие PiratBit!
    Комментировать посты могут только пользователи прошедшие не сложную регистрацию
    Показать сообщения:    

    Капитан Марвел через торрент
    Скачать бесплатно Капитан Марвел
    Капитан Марвел скачать торрент
    Капитан Марвел смотреть онлайн
    Cкачать фильм Капитан Марвел бесплатно
    Капитан Марвел скачать торрент в хорошем качестве
    Капитан Марвел смотреть онлайн бесплатно в хорошем качестве


    Вы не можете начинать темы
    Вы не можете отвечать на сообщения
    Вы не можете редактировать свои сообщения
    Вы не можете удалять свои сообщения
    Вы не можете голосовать в опросах
    Вы не можете прикреплять файлы к сообщениям
    Вы можете скачивать файлы