новый адрес
Ссылка на приватное зеркало всего за 1$. Внимание количество ограничено!!!

iTunes

1+1

iTunes

мы

iTunes

1

iTunes

Чернобыль

iTunes

Ральф против интернета

Лицензия

ПШазам

Лицензия

Оно 2

Лицензия

30
pack

Вам бонус

ВАЖНО

!!Акция!!

Alien_RageХит недели

RePack

Resident Evil 21

ИГРА 18+

pack

RePack

jed

!!Акция!!

Alien_Rage

RePack

fifa19

RePack

Assassins Creed: Odyssey

RePack

NEED FOR SPEED™ PAYBACK

3 сезон

9 сезон

Бесстыжие 9 сезон

Все сериалы

все сериалы на PB.wtf

RePack

FAR CRY 5
Ребята, катастрофически не хватает 1900р. для оплаты серверов за Октябрь (всвязи с блокировками трафик упал в 3 раза), 1-2р., выручайте.
  

Я шагаю по Москве (Георгий Данелия) [1963 г., комедия, мелодрама, WEB-DLRip 720p] - KORSAR pb.wtf

Я шагаю по Москве через торрент pb.wtf

Размер: 2.26 GB | Добавлен: 4 мес. 17 д. назад | Торрент скачан:7 раз
Скачать  

04-07-2019 19:39 Я шагаю по Москве Скачать торрент  

Название: Я шагаю по Москве
Год выхода: 1963
Жанр: Комедия, мелодрама
Выпущено: СССР, Мосфильм
Продолжительность: 01:13:39
Перевод: Не требуется
Режиссер: Георгий Данелия
В ролях: Никита Михалков, Алексей Локтев, Галина Польских, Евгений Стеблов, Любовь Соколова, Ирина Титова, Ирина Мирошниченко, Владимир Басов ст., Ролан Быков, Лев Дуров, Арина Алейникова, Валентина Ананьина, Светлана Беседина, Вероника Васильева, Мария Виноградова, Н. Лихобабина, Евгения Мельникова, Анна Павлова, Алевтина Румянцева, Ирина Скобцева

О фильме: Действие фильма происходит в первой половине 1960-х годов в течение одного дня. Утром прилетевший в Москву из Сибири молодой монтажник Володя Ермаков, видит на аэродроме танцующую девушку. Во время краткого диалога она сообщает незнакомцу, что встречает мужа и у неё «всё хорошо». Позже герой знакомится с возвращающимся с ночной смены метростроевским проходчиком Колькой. Более всего тот мечтает об отдыхе, но основательно выспаться Кольке не удаётся — ему постоянно приходится помогать знакомым и незнакомым людям в решении различных житейских вопросов. Он показывает гостю столицы, как найти Строительный переулок, отыскивает хозяйку собаки, покусавшей Ермакова на бульваре, уговаривает сестру зашить Володины порванные брюки. Далее выясняется, что Колькино вмешательство необходимо и для улаживания проблем его товарища Саши — накануне свадьбы он получил повестку из военкомата, и нужно объяснить военкому, почему будущему молодожёну требуется отсрочка.

rating

Качество: WEB-DLRip 720p
Контейнер: MKV
Видео: MPEG-4 AVC, 1280x544, 25 fps, 3665 Кбит/с
Аудио 1: Russian: AC3, 2 ch, 192 Кбит/с
Аудио 2: Russian: AC3, 6 ch, 448 Кбит/с
Субтитры: Русские, английские

Релиз от:
  • За исходник спасибо george$t
  • скриншот  скриншот  скриншот  скриншот  

    скриншот  скриншот  скриншот  скриншот  
  • x264 [info]: frame I:549 Avg QP:17.07 size: 107258
  • x264 [info]: frame P:25098 Avg QP:18.88 size: 45864
  • x264 [info]: frame B:84827 Avg QP:21.11 size: 10153
  • x264 [info]: consecutive B-frames: 1.7% 2.9% 8.6% 25.3% 24.9% 31.8% 3.2% 1.0% 0.4% 0.1% 0.2%

    =======================================================================

    Общее
    Уникальный идентификатор : 204968343429596475765733632213242711220 (0x9A33778F0848F547BFCF8A530ED18CB4)
    Полное имя : Я шагаю по Москве_1963-WEB-DLRip 720p_KORSAR.mkv
    Формат : Matroska
    Версия формата : Version 2
    Размер файла : 2,26 Гбайт
    Продолжительность : 1 ч. 13 м.
    Общий поток : 4392 Кбит/сек
    Название фильма : Я шагаю по Москве_1963-WEB-DLRip 720p_KORSAR
    Дата кодирования : UTC 2019-04-21 05:50:22
    Программа кодирования : mkvmerge v5.8.0 ('No Sleep / Pillow') built on Sep 2 2012 15:37:04
    Библиотека кодирования : libebml v1.2.3 + libmatroska v1.3.0

    Видео
    Идентификатор : 1
    Формат : AVC
    Формат/Информация : Advanced Video Codec
    Профиль формата : High@L4.1
    Параметр CABAC формата : Да
    Параметр RefFrames формата : 12 кадров
    Идентификатор кодека : V_MPEG4/ISO/AVC
    Продолжительность : 1 ч. 13 м.
    Битрейт : 3665 Кбит/сек
    Ширина : 1280 пикселей
    Высота : 544 пикселя
    Соотношение сторон : 2,35:1
    Режим частоты кадров : Постоянный
    Частота кадров : 25,000 кадров/сек
    Цветовое пространство : YUV
    Субдискретизация насыщенности : 4:2:0
    Битовая глубина : 8 бит
    Тип развёртки : Прогрессивная
    Бит/(Пиксели*Кадры) : 0.211
    Размер потока : 1,89 Гбайт (83%)
    Библиотека кодирования : x264 core 152 r2851kMod ba24899
    Настройки программы : cabac=1 / ref=12 / deblock=1:-2:-2 / analyse=0x3:0x113 / me=umh / subme=10 / psy=1 / fade_compensate=0.00 / psy_rd=1.05:0.10 / mixed_ref=1 / me_range=40 / chroma_me=1 / trellis=2 / 8x8dct=1 / cqm=0 / deadzone=21,11 / fast_pskip=1 / chroma_qp_offset=-3 / threads=12 / lookahead_threads=3 / sliced_threads=0 / nr=0 / decimate=1 / interlaced=0 / bluray_compat=0 / constrained_intra=0 / bframes=10 / b_pyramid=2 / b_adapt=2 / b_bias=0 / direct=1 / weightb=1 / open_gop=0 / weightp=2 / keyint=250 / keyint_min=25 / scenecut=40 / intra_refresh=0 / rc=crf / mbtree=0 / crf=17.3000 / qcomp=0.60 / qpmin=0 / qpmax=30 / qpstep=4 / ip_ratio=1.40 / pb_ratio=1.30 / aq=1:0.80
    Язык : English
    Default : Да
    Forced : Нет
    Цветовой диапазон : Limited
    Основные цвета : BT.709
    Характеристики трансфера : BT.709
    Коэффициенты матрицы : BT.709

    Аудио #1
    Идентификатор : 2
    Формат : AC-3
    Формат/Информация : Audio Coding 3
    Параметр Endianness формата : Big
    Идентификатор кодека : A_AC3
    Продолжительность : 1 ч. 13 м.
    Вид битрейта : Постоянный
    Битрейт : 192 Кбит/сек
    Каналы : 2 канала
    Расположение каналов : Front: L R
    Частота : 48,0 КГц
    Частота кадров : 31,250 кадров/сек (1536 SPF)
    Битовая глубина : 16 бит
    Метод сжатия : С потерями
    Размер потока : 101 Мбайт (4%)
    Язык : Russian
    Default : Да
    Forced : Нет

    Аудио #2
    Идентификатор : 3
    Формат : AC-3
    Формат/Информация : Audio Coding 3
    Параметр Endianness формата : Big
    Идентификатор кодека : A_AC3
    Продолжительность : 1 ч. 13 м.
    Вид битрейта : Постоянный
    Битрейт : 448 Кбит/сек
    Каналы : 6 каналов
    Расположение каналов : Front: L C R, Side: L R, LFE
    Частота : 48,0 КГц
    Частота кадров : 31,250 кадров/сек (1536 SPF)
    Битовая глубина : 16 бит
    Метод сжатия : С потерями
    Размер потока : 236 Мбайт (10%)
    Язык : Russian
    Default : Нет
    Forced : Нет

    Текст #1
    Идентификатор : 4
    Формат : UTF-8
    Идентификатор кодека : S_TEXT/UTF8
    Идентификатор кодека/Информация : UTF-8 Plain Text
    Язык : Russian
    Default : Нет
    Forced : Нет

    Текст #2
    Идентификатор : 5
    Формат : UTF-8
    Идентификатор кодека : S_TEXT/UTF8
    Идентификатор кодека/Информация : UTF-8 Plain Text
    Язык : English
    Default : Нет
    Forced : Нет
  • pb.wtf



    Скачать Я шагаю по Москве через торрент https://i1.imageban.ru/out/2019/04/20/d272ea24bce2a95bbb1ee7db54c4d5f7.png Скачать фильм Я шагаю по Москве через торрент бесплантно в хорошем качестве О фильме: Действие фильма происходит в первой половине 1960-х годов в течение одного дня. Утром прилетевший в Москву из Сибири молодой ... 5 10 1
    Info! Золотая раздача, скачанное не засчитывается.
    Торрент: Зарегистрирован [2019-07-04 19:39] · скачан: 7 раз
    Статус: √ проверено
    Размер: 2.26 GB
    Как cкачать? Как скачать Я шагаю по Москве через торрент | qTorrent

    % Раздел Тема Автор DL S | L
    Кино СССР [ 5 GB ] Я шагаю по Москве [1963 WEB-DLRip 1080p] - KORSAR kisa1980 Скачать
    1 | 0
      Дорогой пользователь! Огромная просьба, поблагодарите релизера, оцените раздачу и оставьте свои комментарий, если Вы скачали Я шагаю по Москве через торрент бесплатно! Внесите свою лепту в развитие PiratBit!
      Комментировать посты могут только пользователи прошедшие не сложную регистрацию
      Показать сообщения:    

      Я шагаю по Москве через торрент
      Скачать бесплатно Я шагаю по Москве
      Я шагаю по Москве скачать торрент
      Я шагаю по Москве смотреть онлайн
      Cкачать фильм Я шагаю по Москве бесплатно
      Я шагаю по Москве скачать торрент в хорошем качестве
      Я шагаю по Москве смотреть онлайн бесплатно в хорошем качестве


      Вы не можете начинать темы
      Вы не можете отвечать на сообщения
      Вы не можете редактировать свои сообщения
      Вы не можете удалять свои сообщения
      Вы не можете голосовать в опросах
      Вы не можете прикреплять файлы к сообщениям
      Вы можете скачивать файлы