Всегда рабочее зеркало просто перед .vidak.icu напиши любое слово или цифру, Пример http://4xl.vidak.icu

>

7.4

iTunes

7.4

2 сезон

9.4

1 сезон

1

7.4

2 сезон

7.2

iTunes

6.0

MVO

13

6.1

iTunes

8.3

Пиратка

30

ULTIMATE

pack

9.9

Лицензия

ВАЖНО

ИГРА 18+

pack

7.3

RePack

MK11

7.7

RePack

jed

7.8

RePack

fifa19

8.5

RePack

RDR2

RePack

NEED FOR SPEED™ PAYBACK

1 сезон

9 сезон

Бесстыжие 9 сезон

Все сериалы

все сериалы на PB.wtf

RePack

FAR CRY 5

Anonymous, доброй ночи, мы катастрофически не успеваем собрать деньги на оплату серверов, помогите нам пожалуйста 5,10,15р., для нас важна любая помощь . В качестве благодарности мы отключим Вам всю рекламу на сайте (укажите свой ник в строку Ваше имя)!

×
  
Magnet ссылка

Голубое пламя / Blue Flame (Кассиан Элвис) [1993 г., фантастика, драма, DVDRip] AVO (Леонид Володарский) pb.wtf

Голубое пламя через торрент pb.wtf

Размер: 1.47 GB | Добавлен: 2 года 6 мес. назад | Торрент скачан:11 раз
Смотреть онлайн Голубое пламя | Скачать    Ребята, помогите собрать деньги на оплату серверов!!!

05-07-2019 21:51 Голубое пламя Скачать торрент  

Голубое пламя / Blue Flame
Год выпуска: 1993
Страна: США
Жанр: Фантастика, драма
Продолжительность: 01:27:56
Перевод: Авторский (одноголосый) - Леонид Володарский

Режиссер: Кассиан Элвис

rating

В ролях: Чарли Хейуорд, Джад Магер, Керри Грин, Брайан Уиммер, Джоэл Брукс, Сесилия Пек, Дэвид Каррера, Joe Fiacho, Б.Дж. Дэвис, Элизабет Хейден

Описание: 2018 год. Лейтенант Питер Флеминг взял в плен пришельца вместе с сообщницей, похитивших его двухлетнюю дочь. Дочь так и не нашли. Два года спустя пришельцы сбежали, и лейтенант получил задание, которое, как надеются родители, может помочь вернуть им их ребёнка. Будущее по фильму не сулит нам ничего хорошего. Отравленная окружающая среда, разгул преступности, новые мощные наркотики, насилие и жестокость.
Качество: DVDRip
Формат: AVI
Видео: XviD, 1990 Кбит/с, 640x480
Аудио#1: Русский, AC3, 2 ch, 192 Кбит/с
Аудио#2: Английский, AC3, 2 ch, 192 Кбит/сек
Видео
Идентификатор : 0
Формат : MPEG-4 Visual
Профиль формата : Advanced Simple@L5
Настройки формата : BVOP1
Параметр BVOP формата : 1
Параметр QPel формата : Нет
Параметр GMC формата : Без точки перехода
Параметр матрицы формата : Default (MPEG)
Идентификатор кодека : XVID
Идентификатор кодека/Подсказка : XviD
Продолжительность : 1 ч. 27 м.
Битрейт : 1990 Кбит/сек
Ширина : 640 пикселей
Высота : 480 пикселей
Соотношение сторон : 4:3
Частота кадров : 23,976 (24000/1001) кадра/сек
Цветовое пространство : YUV
Субдискретизация насыщенности : 4:2:0
Битовая глубина : 8 бит
Тип развёртки : Прогрессивная
Метод сжатия : С потерями
Бит/(Пиксели*Кадры) : 0.270
Размер потока : 1,22 Гбайт (83%)
Библиотека кодирования : XviD 73

Аудио #1
Идентификатор : 1
Формат : AC-3
Формат/Информация : Audio Coding 3
Коммерческое название : Dolby Digital
Идентификатор кодека : 2000
Продолжительность : 1 ч. 27 м.
Вид битрейта : Постоянный
Битрейт : 192 Кбит/сек
Каналы : 2 канала
Channel layout : L R
Частота : 48,0 КГц
Частота кадров : 31,250 кадров/сек (1536 SPF)
Битовая глубина : 16 бит
Метод сжатия : С потерями
Размер потока : 121 Мбайт (8%)
Выравнивание : Разделение по промежуткам
Продолжительность промежутка : 42 мс. (1,00 видеокадр)
Время предзагрузки промежутка : 500 мс.
ServiceKind/String : Complete Main

Аудио #2
Идентификатор : 2
Формат : AC-3
Формат/Информация : Audio Coding 3
Коммерческое название : Dolby Digital
Идентификатор кодека : 2000
Продолжительность : 1 ч. 27 м.
Вид битрейта : Постоянный
Битрейт : 192 Кбит/сек
Каналы : 2 канала
Channel layout : L R
Частота : 48,0 КГц
Частота кадров : 31,250 кадров/сек (1536 SPF)
Битовая глубина : 16 бит
Метод сжатия : С потерями
Размер потока : 121 Мбайт (8%)
Выравнивание : Разделение по промежуткам
Продолжительность промежутка : 42 мс. (1,00 видеокадр)
Время предзагрузки промежутка : 500 мс.
ServiceKind/String : Complete Main

скриншот   скриншот   скриншот   скриншот   скриншот  

pb.wtf



Скачать Голубое пламя через торрент https://pic1.kartinco.top/images/12/fe3b7.jpg Скачать, смотреть онлайн Голубое пламя бесплантно в хорошем качестве Описание: 2018 год. Лейтенант Питер Флеминг взял в плен пришельца вместе с сообщницей, похитивших его двухлетнюю дочь. Дочь так и не нашли. ... 9.5 10 2
Торрент: Зарегистрирован [2019-07-05 21:51] · скачан: 11 раз
Статус: √ проверено
Размер: 1.47 GB
Как cкачать? Как скачать Голубое пламя через торрент | UTorrent

28-11-2019 20:33  

Отключить всю рекламу на сайте

    Дорогой пользователь! Огромная просьба, поблагодарите релизера, оцените раздачу и оставьте свои комментарий, если Вы скачали Голубое пламя через торрент бесплатно!
    Комментировать посты могут только пользователи прошедшие не сложную регистрацию
    Показать сообщения:    

    Голубое пламя через торрент
    Скачать бесплатно Голубое пламя
    Голубое пламя скачать торрент
    Голубое пламя смотреть онлайн
    Cкачать фильм Голубое пламя бесплатно
    Голубое пламя скачать торрент в хорошем качестве
    Голубое пламя смотреть онлайн бесплатно в хорошем качестве


    Вы не можете начинать темы
    Вы не можете отвечать на сообщения
    Вы не можете редактировать свои сообщения
    Вы не можете удалять свои сообщения
    Вы не можете голосовать в опросах
    Вы не можете прикреплять файлы к сообщениям
    Вы можете скачивать файлы