MEGA SALE -50% FORZA HORIZON 4 ULTIMATE+ВСЕ DLC+ОНЛАЙН всего за 599р. 299 руб. (супер цена). Внимание количество ограничено!!!

iTunes

1+1

iTunes

мы

iTunes

1

iTunes

Чернобыль

iTunes

Ральф против интернета

Лицензия

ПШазам

Лицензия

Игра престолов

Лицензия

30
pack

ВАЖНО

!!Акция!!

Alien_RageХит недели

RePack

Resident Evil 21

ИГРА 18+

pack

RePack

Metro:Exodus

!!Акция!!

Alien_Rage

RePack

fifa19

RePack

Assassins Creed: Odyssey

RePack

NEED FOR SPEED™ PAYBACK

3 сезон

9 сезон

Бесстыжие 9 сезон

Все сериалы

все сериалы на PB.wtf

RePack

FAR CRY 5
Ребята, катастрофически не хватает 7730р. для оплаты серверов за АВГУСТ (всвязи с блокировками трафик упал в 3 раза), 1-2р., выручайте.
  

Крайний космос / Final Space / Сезон: 2 / Серии: 1-11 из 13 (Олэн Роджерс / Olan Rogers) [2019, приключения, комедия, фантастика, WEB-DL 1080p] [DVO] (NewStation) pb.wtf

Крайний космос через торрент pb.wtf

Размер: 14.1 GB | Добавлен: 8 д. назад | Торрент скачан:2 раза
Скачать  

06-07-2019 08:45 Крайний космос Скачать торрент  

Крайний космос / Космический рубеж / Космо-Рубеж / Final Space Страна: США
Жанр: Мультфильм, приключение, комедия, фантастика
Продолжительность серии: 1x ~00:22:00
Год выпуска: 2019
Перевод: Любительский (двухголосый закадровый) | [NewStation]
Режиссёр: Олэн Роджерс / Olan Rogers
Роли озвучивали Митчелл Дэвис, Коути Гэлловэй, Олэн Роджерс, Джейк Сидвелл
Описание: Астронавт по имени Гэри и его уничтожающий планеты приятель, называемый себя Мункейк, приступают к путешествиям по космосу, чтобы разгадать тайну того, где вселенная заканчивается и действительно ли она существует.
rating

Качество: WEB-DL 1080p (AMZN)
Формат: MKV

Видео: AVC, 1920x1080, 23,976 fps, ~10000 Кбит/сек
Аудио 1: [RUS] 48 kHz, AC-3, 6ch, 640 Кбит/сек
Аудио 2: [ENG] 48 kHz, AC-3, 6ch, 640 Кбит/сек
Русские субтитры: (Женя Спицын)
Общее
Уникальный идентификатор : 179827870538312504424464828157917097195 (0x8749968BCA03E55ECFC93B0A02DF6CEB)
Полное имя : F:\NewStation\Final.Space.S02.WEB-DL.1080p.NewStation\Final.Space.S02E01.WEB-DL.1080p.NewStation.mkv
Формат : Matroska
Версия формата : Version 4 / Version 2
Размер файла : 1,65 Гбайт
Продолжительность : 21 м. 32 с.
Общий поток : 10,9 Мбит/сек
Дата кодирования : UTC 2019-07-04 18:21:27
Программа кодирования : mkvmerge v28.1.0 ('Morning Child') 64-bit
Библиотека кодирования : libebml v1.3.6 + libmatroska v1.4.9

Видео
Идентификатор : 1
Формат : AVC
Формат/Информация : Advanced Video Codec
Профиль формата : High@L4
Настройки формата : CABAC / 4 Ref Frames
Параметр CABAC формата : Да
Параметр RefFrames формата : 4 кадра
Идентификатор кодека : V_MPEG4/ISO/AVC
Продолжительность : 21 м. 32 с.
Вид битрейта : Постоянный
Битрейт : 10000 Кбит/сек
Ширина : 1920 пикселей
Высота : 1080 пикселей
Соотношение сторон : 16:9
Режим частоты кадров : Постоянный
Частота кадров : 23,976 (24000/1001) кадра/сек
Цветовое пространство : YUV
Субдискретизация насыщенности : 4:2:0
Битовая глубина : 8 бит
Тип развёртки : Прогрессивная
Бит/(Пиксели*Кадры) : 0.201
Размер потока : 1,45 Гбайт (88%)
Default : Да
Forced : Нет
Цветовой диапазон : Limited
Основные цвета : BT.709
Характеристики трансфера : BT.709
Коэффициенты матрицы : BT.709

Аудио #1
Идентификатор : 2
Формат : AC-3
Формат/Информация : Audio Coding 3
Идентификатор кодека : A_AC3
Продолжительность : 21 м. 32 с.
Вид битрейта : Постоянный
Битрейт : 640 Кбит/сек
Каналы : 6 каналов
Расположение каналов : Front: L C R, Side: L R, LFE
Частота : 48,0 КГц
Частота кадров : 31,250 кадров/сек (1536 SPF)
Битовая глубина : 16 бит
Метод сжатия : С потерями
Размер потока : 98,6 Мбайт (6%)
Заголовок : NewStation
Язык : Russian
ServiceKind/String : Complete Main
Default : Да
Forced : Нет

Аудио #2
Идентификатор : 3
Формат : AC-3
Формат/Информация : Audio Coding 3
Идентификатор кодека : A_AC3
Продолжительность : 21 м. 32 с.
Вид битрейта : Постоянный
Битрейт : 640 Кбит/сек
Каналы : 6 каналов
Расположение каналов : Front: L C R, Side: L R, LFE
Частота : 48,0 КГц
Частота кадров : 31,250 кадров/сек (1536 SPF)
Битовая глубина : 16 бит
Метод сжатия : С потерями
Размер потока : 98,6 Мбайт (6%)
Заголовок : Original
Язык : English
ServiceKind/String : Complete Main
Default : Нет
Forced : Нет

Текст #1
Идентификатор : 4
Формат : UTF-8
Идентификатор кодека : S_TEXT/UTF8
Идентификатор кодека/Информация : UTF-8 Plain Text
Продолжительность : 21 м. 25 с.
Битрейт : 128 бит/сек
ElementCount : 361
Размер потока : 20,2 Кбайт (0%)
Заголовок : Женя Спицын
Язык : Russian
Default : Нет
Forced : Нет

Текст #2
Идентификатор : 5
Формат : UTF-8
Идентификатор кодека : S_TEXT/UTF8
Идентификатор кодека/Информация : UTF-8 Plain Text
Продолжительность : 21 м. 25 с.
Битрейт : 92 бит/сек
ElementCount : 547
Размер потока : 14,5 Кбайт (0%)
Заголовок : Original
Язык : English
Default : Нет
Forced : Нет
скриншот  скриншот  скриншот  
Когда раздача ведётся путём добавления новых серий, при каждом добавлении создётся новый торрент. Чтобы начать докачку новой серии, пользователям необходимо сделать следующее:
(1) остановить скачивание,
(2) удалить старый торрент у себя из клиента (старые серии удалять не надо),
(3) скачать новый торрент и запустить его у себя в клиенте вместо старого, при этом указать клиенту путь в старую папку, куда и должно происходить скачивание новых серий.
Ваш клиент при этом должен произвести хеширование (проверку) старой папки (если не производит сам - помогите ему сделать это), и будет докачивать только те серии, которых у вас ещё нет.Старые серии при этом не удаляются, а продолжают раздаваться!
Eсли вы уже удалили старые серии, то предотвратить повторную закачку старых серий можно, отжав галочку в соответсвующих местах при запуске нового торрента. По возможности, желательно не удалять старые серии как можно дольше, чтобы релизёр не столько продолжал раздавать старые серии, а смог сконцентрироваться на новых.
pb.wtf



Скачать Крайний космос через торрент https://i110.fastpic.ru/big/2019/0704/ed/571bcf3085d73a6f8a87debeec56cbed.jpg Скачать фильм Крайний космос через торрент бесплантно в хорошем качестве Описание: Астронавт по имени Гэри и его уничтожающий планеты приятель, называемый себя Мункейк, приступают к путешествиям по космосу, чтобы ... 8.8 10 6
Торрент: Зарегистрирован [2019-09-13 17:48] · скачан: 2 раз
Статус: √ проверено
Размер: 14.1 GB
Как cкачать? Как скачать Крайний космос через торрент | qTorrent

% Раздел Тема Автор DL S | L
Мультсериалы [ 13.68 GB ] Крайний космос / Final Space / Сезон: 2 / Серии: 1-11 из 13 [2019 WEB-DL 1080p] [MVO] killermax2013 Скачать
1 | 0


>> Регистрируемся здесь <<






Отзывы и комментарии о схеме читаем и пишем здесь: ---> Отзывы и комментарии о схеме

Новые благодарочки в телеграм довольных пользователей:
скриншот   скриншот   скриншот   скриншот   скриншот
    Дорогой пользователь! Огромная просьба, поблагодарите релизера, оцените раздачу и оставьте свои комментарий, если Вы скачали Крайний космос через торрент бесплатно! Внесите свою лепту в развитие PiratBit!
    Комментировать посты могут только пользователи прошедшие не сложную регистрацию
    Показать сообщения:    

    Крайний космос через торрент
    Скачать бесплатно Крайний космос
    Крайний космос скачать торрент
    Крайний космос смотреть онлайн
    Cкачать фильм Крайний космос бесплатно
    Крайний космос скачать торрент в хорошем качестве
    Крайний космос смотреть онлайн бесплатно в хорошем качестве


    Вы не можете начинать темы
    Вы не можете отвечать на сообщения
    Вы не можете редактировать свои сообщения
    Вы не можете удалять свои сообщения
    Вы не можете голосовать в опросах
    Вы не можете прикреплять файлы к сообщениям
    Вы можете скачивать файлы