новый адрес
Ссылка на приватное зеркало всего за 1$. Внимание количество ограничено!!!

iTunes

1+1

iTunes

мы

WEB-DL

1

iTunes

Чернобыль

iTunes

Ральф против интернета

Лицензия

ПШазам

Лицензия

Оно 2

Лицензия

30
pack

Вам бонус

ВАЖНО

!!Акция!!

Alien_RageХит недели

RePack

Resident Evil 21

ИГРА 18+

pack

RePack

jed

!!Акция!!

Alien_Rage

RePack

fifa19

RePack

Assassins Creed: Odyssey

RePack

NEED FOR SPEED™ PAYBACK

3 сезон

9 сезон

Бесстыжие 9 сезон

Все сериалы

все сериалы на PB.wtf

RePack

FAR CRY 5
Ребята, катастрофически не хватает 1900р. для оплаты серверов за Октябрь (всвязи с блокировками трафик упал в 3 раза), 1-2р., выручайте.
  

Очень странные дела / Stranger Things / Сезон: 3 / Серии: 1-8 из 8 (Мэтт Даффер, Росс Даффер, Шон Леви) [2019, Ужасы, триллер, драма, UHD WEB-DL 2160p] [SDR] DUB [Пифагор] pb.wtf

Очень странные дела через торрент pb.wtf

Размер: 51.84 GB | Добавлен: 5 мес. 4 д. назад | Торрент скачан:52 раза
Скачать  

06-07-2019 13:40 Очень странные дела Скачать торрент  

Очень странные дела / Stranger Things
Год выпуска: 2019
Страна: США
Жанр: Ужасы, триллер, драма
Продолжительность: ~00:51:00
Перевод: Дублированный | Пифагор
Субтитры: Русские (Forced, Full [Netflix]), английские (SDH

Режиссер: Мэтт Даффер, Росс Даффер, Шон Леви

rating

В ролях:

Вайнона Райдер (Joyce Byers), Дэвид Харбор (Jim Hopper), Финн Вулфард (Mike Wheeler), Милли Бобби Браун (Eleven), Гейтен Матараццо (Dustin Henderson), Калеб МакЛафлин (Lucas Sinclair), Наталия Дайер (Nancy Wheeler), Чарли Хитон (Jonathan Byers), Кара Буоно (Karen Wheeler), Джо Кири (Steve Harrington), Ноа Шнапп (Will Byers), Сэди Синк (Max Mayfield)
Описание: 1980-е годы, тихий провинциальный американский городок. Благоприятное течение местной жизни нарушает загадочное исчезновение подростка по имени Уилл. Выяснить обстоятельства дела полны решимости родные мальчика и местный шериф. Также события затрагивают лучшего друга Уилла — Майка. Он начинает собственное расследование. Майк уверен, что близок к разгадке, и теперь ему предстоит оказаться в эпицентре ожесточенной битвы потусторонних сил.

Качество: UHD WEB-DL 2160p
Формат: MKV

Видео: HEVC SDR, ~ 15.5 Mбит/с, 3840x2160, 23.976 кадр/с, 10 Бит
Аудио#1 Rus: E-AC3, 48 kHz, 3/2 (L,C,R,l,r) + LFE ch, 640 Кбит/сек | Профессиональный (дублированный) | Пифагор
Аудио#2 Eng: E-AC3, 48 kHz, 3/2 (L,C,R,l,r) + LFE ch, 640 Кбит/сек
скриншот  скриншот  скриншот  скриншот  скриншот  

General
Unique ID : 313124558468598556683040194696568505127 (0xEB9198AA3F5BAEF43F54F259E41E0327)
Complete name : /Stranger.Things.S03E01.2160p.WEB-DL.HEVC.AMS.mkv
Format : Matroska
Format version : Version 4
File size : 5.82 GiB
Duration : 50mn 33s
Overall bit rate : 16.5 Mbps
Movie name : Stranger Things 3x01 - MVO AMS
Encoded date : UTC 2019-07-09 21:08:48
Writing application : mkvmerge v8.2.0 ('World of Adventure') 64bit
Writing library : libebml v1.3.1 + libmatroska v1.4.2

Video
ID : 1
Format : HEVC
Format/Info : High Efficiency Video Coding
Format profile : Main 10@L5@Main
Codec ID : V_MPEGH/ISO/HEVC
Duration : 50mn 33s
Bit rate : 15.2 Mbps
Width : 3 840 pixels
Height : 1 920 pixels
Original height : 2 160 pixels
Display aspect ratio : 16:9
Frame rate mode : Constant
Frame rate : 23.976 (24000/1001) fps
Color space : YUV
Chroma subsampling : 4:2:0
Bit depth : 10 bits
Bits/(Pixel*Frame) : 0.086
Stream size : 5.37 GiB (92%)
Title : Stranger Things 3x01 - MVO AMS
Language : English
Default : Yes
Forced : No
Color range : Limited
Color primaries : BT.709
Transfer characteristics : BT.709
Matrix coefficients : BT.709

Audio #1
ID : 2
Format : AC-3
Format/Info : Audio Coding 3
Commercial name : Dolby Digital
Codec ID : A_AC3
Duration : 50mn 33s
Bit rate mode : Constant
Bit rate : 640 Kbps
Channel(s) : 6 channels
Channel layout : L R C LFE Ls Rs
Sampling rate : 48.0 KHz
Frame rate : 31.250 fps (1536 SPF)
Bit depth : 16 bits
Compression mode : Lossy
Stream size : 231 MiB (4%)
Title : MVO AMS
Language : Russian
Service kind : Complete Main
Default : Yes
Forced : No

Audio #2
ID : 3
Format : E-AC-3
Format/Info : Enhanced AC-3
Commercial name : Dolby Digital Plus
Codec ID : A_EAC3
Duration : 50mn 33s
Bit rate mode : Constant
Bit rate : 640 Kbps
Channel(s) : 6 channels
Channel layout : L R C LFE Ls Rs
Sampling rate : 48.0 KHz
Frame rate : 31.250 fps (1536 SPF)
Compression mode : Lossy
Stream size : 231 MiB (4%)
Title : Original
Language : English
Service kind : Complete Main
Default : No
Forced : No

Text #1
ID : 4
Format : UTF-8
Codec ID : S_TEXT/UTF8
Codec ID/Info : UTF-8 Plain Text
Duration : 48mn 40s
Bit rate : 60 bps
Count of elements : 496
Stream size : 21.7 KiB (0%)
Title : Rus-Subs
Language : Russian
Default : No
Forced : No

Text #2
ID : 5
Format : UTF-8
Codec ID : S_TEXT/UTF8
Codec ID/Info : UTF-8 Plain Text
Duration : 39mn 59s
Bit rate : 0 bps
Count of elements : 14
Stream size : 297 Bytes (0%)
Title : Eng-Subs (Forced)
Language : English
Default : Yes
Forced : Yes

Text #3
ID : 6
Format : UTF-8
Codec ID : S_TEXT/UTF8
Codec ID/Info : UTF-8 Plain Text
Duration : 42mn 52s
Bit rate : 55 bps
Count of elements : 622
Stream size : 17.5 KiB (0%)
Title : Eng-Subs
Language : English
Default : No
Forced : No

Text #4
ID : 7
Format : UTF-8
Codec ID : S_TEXT/UTF8
Codec ID/Info : UTF-8 Plain Text
Duration : 48mn 53s
Bit rate : 59 bps
Count of elements : 778
Stream size : 21.2 KiB (0%)
Title : Eng-Subs (SDH)
Language : English
Default : No
Forced : No

Menu
00:05:06.015 : en:Intro start
00:05:54.521 : en:Intro end

pb.wtf



Скачать Очень странные дела через торрент http://a.radikal.ru/a20/1907/46/71b01d7a80ec.jpg Скачать фильм Очень странные дела через торрент бесплантно в хорошем качестве Описание: 1980-е годы, тихий провинциальный американский городок. Благоприятное течение местной жизни нарушает загадочное исчезновение ... 7.8 10 4
Info! Золотая раздача, скачанное не засчитывается.
Торрент: Зарегистрирован [2019-07-06 13:40] · скачан: 52 раз
Статус: √ проверено
Размер: 51.84 GB
Как cкачать? Как скачать Очень странные дела через торрент | qTorrent

% Раздел Тема Автор DL S | L
Зарубежные сериалы [ 6.25 GB ] Очень странные дела / Stranger Things / Сезон: 3 / Серии: 1-8 из 8 [2019 . WEB-DLRip] MVO [LostFilm] bober100 Скачать
3 | 0
Зарубежные сериалы [ 14.41 GB ] Очень странные дела / Загадочные события / Stranger Things / Сезон: 3 / Серии: 1-8 из 8 [2019 WEBRip 720p] MVO [Lostfilm] bober100 Скачать
1 | 0
Зарубежные сериалы [ 44 GB ] Очень странные дела / Загадочные события / Stranger Things / Сезон: 3 / Серии: 1-8 из 8 [2019 WEB-DL 1080p] MVO [LostFilm] bober100 Скачать
1 | 0
Зарубежные сериалы [ 51.78 GB ] Очень странные дела / Stranger Things / 3 сезон / 1-8 серии из 8 [2019 UHD WEB-DL 2160p] MVO [AMS] sheker187 Скачать
1 | 0
Зарубежные сериалы [ 54.66 GB ] Очень странные дела / Stranger Things / 3 сезон / 1-8 серии из 8 [2019 UHD WEB-DL 2160p] [Dolby Vision TV] MVO [AMS] sheker187 Скачать
1 | 0
Зарубежные сериалы [ 51.78 GB ] Очень странные дела / Stranger Things / 3 сезон / 1-8 серии из 8 [2019 UHD WEB-DL 2160p] DUB [Пифагор] sheker187 Скачать
1 | 0
Зарубежные сериалы [ 126.92 GB ] Очень странные дела / Stranger Things / 3 сезон / 1-8 серии из 8 [2019 UHD WEB-DL 2160p] [SDR] DUB [Пифагор] sheker187 Скачать
1 | 0

28-11-2019 20:33  

Отключить всю рекламу на сайте


    Дорогой пользователь! Огромная просьба, поблагодарите релизера, оцените раздачу и оставьте свои комментарий, если Вы скачали Очень странные дела через торрент бесплатно! Внесите свою лепту в развитие PiratBit!
    Комментировать посты могут только пользователи прошедшие не сложную регистрацию
    Показать сообщения:    

    Очень странные дела через торрент
    Скачать бесплатно Очень странные дела
    Очень странные дела скачать торрент
    Очень странные дела смотреть онлайн
    Cкачать фильм Очень странные дела бесплатно
    Очень странные дела скачать торрент в хорошем качестве
    Очень странные дела смотреть онлайн бесплатно в хорошем качестве


    Вы не можете начинать темы
    Вы не можете отвечать на сообщения
    Вы не можете редактировать свои сообщения
    Вы не можете удалять свои сообщения
    Вы не можете голосовать в опросах
    Вы не можете прикреплять файлы к сообщениям
    Вы можете скачивать файлы