новый адрес
Ссылка на приватное зеркало всего за 1$. Внимание количество ограничено!!!

iTunes

1+1

iTunes

мы

iTunes

1

iTunes

Чернобыль

iTunes

Ральф против интернета

Лицензия

ПШазам

Лицензия

Оно 2

Лицензия

30
pack

Вам бонус

ВАЖНО

!!Акция!!

Alien_RageХит недели

RePack

Resident Evil 21

ИГРА 18+

pack

RePack

jed

!!Акция!!

Alien_Rage

RePack

fifa19

RePack

Assassins Creed: Odyssey

RePack

NEED FOR SPEED™ PAYBACK

3 сезон

9 сезон

Бесстыжие 9 сезон

Все сериалы

все сериалы на PB.wtf

RePack

FAR CRY 5
Ребята, катастрофически не хватает 1900р. для оплаты серверов за Октябрь (всвязи с блокировками трафик упал в 3 раза), 1-2р., выручайте.
  

Стекло / Glass (М. Найт Шьямалан) [2019, фантастика, триллер, драма, детектив, BDRip-AVC] MVO [HDRezka Studio] + AVO [Чадов, Есарев] - ExKinoRay pb.wtf

Стекло через торрент pb.wtf

Раздают: 20 [ 2 KB/s ]
Размер: 2.98 GB | Добавлен: 4 мес. 30 д. назад | Торрент скачан:305 раз
Скачать  

06-07-2019 14:27 Стекло Скачать торрент  

Информация о фильме
Название: Стекло
Оригинальное название: Glass
Год выпуска: 2019
Жанр: Фантастика, триллер, драма, детектив
Режиссер: М. Найт Шьямалан
В ролях: Джеймс МакЭвой, Брюс Уиллис, Сэмюэл Л. Джексон, Сара Полсон, Аня Тейлор-Джой, Спенсер Трит Кларк, Чарлэйн Вудард, Люк Кирби, Адам Дэвид Томпсон, М. Найт Шьямалан, Шеннон Дестини Райан, Диана Сильверс, Нина Уиснер, Серж Диденко, Джейн Парк Смит, Кайли Зион, Расселл Познер, Кимберли С. Фербенкс

Описание:
Похититель с множественным расстройством личности и террорист-инвалид Мистер Стекло выходят на своих давних противников - травмированную девочку-подростка Кейси и стареющего супергероя Дэвида Данна.

rating

Страна: США
Студия: Walt Disney Pictures, Universal Pictures, Blinding Edge Pictures
Продолжительность: 02:09:01
Перевод: профессиональный (многоголосый, закадровый), авторский (одноголосый, закадровый)

БЕЗ КАКОЙ-ЛИБО РЕКЛАМЫ!

Формат: MKV
Качество: BDRip-AVC
Видео: MPEG-4 AVC, 1024x428 (2.40:1), 23.976 fps, 1524 Kbps, 0.137 bit/pixel
Аудио #1: 48 kHz, AC3, 5.1, 448 Kbps (Русский - MVO [HDRezka Studio]) |
Аудио #2: 48 kHz, AC3, 5.1, 448 Kbps (Русский - AVO М.Чадов) |
Аудио #3: 48 kHz, AC3, 5.1, 448 Kbps (Русский - AVO Д.Есарев) |
Аудио #4: 48 kHz, AC3, 5.1, 448 Kbps (Английский - Original) |

Субтитры: Русские (Forced, Full (Enigma)), английские
General
Unique ID : 194655141768635376006716191578334859575 (0x9271377576E840D0AD507A28AC1E9137)
Complete name : F:\Glass.2019.BDRip.AVC.ExKinoRay.mkv
Format : Matroska
Format version : Version 2
File size : 2.98 GiB
Duration : 2 h 9 min
Overall bit rate : 3 302 kb/s
Movie name : Стекло 2019 from ExKinoRay
Encoded date : UTC 2019-07-06 04:53:09
Writing application : mkvmerge v5.6.0 ('Kenya Kane') built on May 27 2012 16:44:04
Writing library : libebml v1.2.3 + libmatroska v1.3.0
Attachments : 71e321592a192be3e0066cdacd856ddd.jpg

Video
ID : 1
Format : AVC
Format/Info : Advanced Video Codec
Format profile : High@L4.1
Format settings, CABAC : Yes
Format settings, ReFrames : 12 frames
Codec ID : V_MPEG4/ISO/AVC
Duration : 2 h 9 min
Bit rate : 1 444 kb/s
Nominal bit rate : 1 524 kb/s
Width : 1 024 pixels
Height : 428 pixels
Display aspect ratio : 2.40:1
Frame rate mode : Constant
Frame rate : 23.976 (23976/1000) FPS
Color space : YUV
Chroma subsampling : 4:2:0
Bit depth : 8 bits
Scan type : Progressive
Bits/(Pixel*Frame) : 0.137
Stream size : 1.30 GiB (44%)
Title : Enigma
Writing library : x264 core 152 r2851 ba24899
Encoding settings : cabac=1 / ref=12 / deblock=1:-2:-2 / analyse=0x3:0x113 / me=umh / subme=10 / psy=1 / psy_rd=1.00:0.00 / mixed_ref=1 / me_range=32 / chroma_me=1 / trellis=2 / 8x8dct=1 / cqm=0 / deadzone=21,11 / fast_pskip=0 / chroma_qp_offset=-2 / threads=12 / lookahead_threads=3 / sliced_threads=0 / nr=0 / decimate=0 / interlaced=0 / bluray_compat=0 / constrained_intra=0 / bframes=12 / b_pyramid=2 / b_adapt=2 / b_bias=0 / direct=3 / weightb=1 / open_gop=0 / weightp=2 / keyint=240 / keyint_min=23 / scenecut=40 / intra_refresh=0 / rc=2pass / mbtree=0 / bitrate=1524 / ratetol=1.0 / qcomp=0.70 / qpmin=0 / qpmax=51 / qpstep=4 / cplxblur=20.0 / qblur=0.5 / ip_ratio=1.40 / pb_ratio=1.30 / aq=3:0.80
Language : English
Default : Yes
Forced : No
Color range : Limited
Color primaries : BT.709
Transfer characteristics : BT.709
Matrix coefficients : BT.709

Audio #1
ID : 2
Format : AC-3
Format/Info : Audio Coding 3
Mode extension : CM (complete main)
Format settings, Endianness : Big
Codec ID : A_AC3
Duration : 2 h 9 min
Bit rate mode : Constant
Bit rate : 448 kb/s
Channel(s) : 6 channels
Channel positions : Front: L C R, Side: L R, LFE
Sampling rate : 48.0 kHz
Frame rate : 31.250 FPS (1536 spf)
Compression mode : Lossy
Stream size : 413 MiB (14%)
Title : MVO (HDRezka Studio)
Language : Russian
Default : Yes
Forced : No

Audio #2
ID : 3
Format : AC-3
Format/Info : Audio Coding 3
Mode extension : CM (complete main)
Format settings, Endianness : Big
Codec ID : A_AC3
Duration : 2 h 9 min
Bit rate mode : Constant
Bit rate : 448 kb/s
Channel(s) : 6 channels
Channel positions : Front: L C R, Side: L R, LFE
Sampling rate : 48.0 kHz
Frame rate : 31.250 FPS (1536 spf)
Compression mode : Lossy
Stream size : 413 MiB (14%)
Title : AVO (Chadov)
Language : Russian
Default : No
Forced : No

Audio #3
ID : 4
Format : AC-3
Format/Info : Audio Coding 3
Mode extension : CM (complete main)
Format settings, Endianness : Big
Codec ID : A_AC3
Duration : 2 h 9 min
Bit rate mode : Constant
Bit rate : 448 kb/s
Channel(s) : 6 channels
Channel positions : Front: L C R, Side: L R, LFE
Sampling rate : 48.0 kHz
Frame rate : 31.250 FPS (1536 spf)
Compression mode : Lossy
Stream size : 413 MiB (14%)
Title : AVO (Esarev)
Language : Russian
Default : No
Forced : No

Audio #4
ID : 5
Format : AC-3
Format/Info : Audio Coding 3
Mode extension : CM (complete main)
Format settings, Endianness : Big
Codec ID : A_AC3
Duration : 2 h 9 min
Bit rate mode : Constant
Bit rate : 448 kb/s
Channel(s) : 6 channels
Channel positions : Front: L C R, Side: L R, LFE
Sampling rate : 48.0 kHz
Frame rate : 31.250 FPS (1536 spf)
Compression mode : Lossy
Stream size : 413 MiB (14%)
Language : English
Default : No
Forced : No

Text #1
ID : 6
Format : UTF-8
Codec ID : S_TEXT/UTF8
Codec ID/Info : UTF-8 Plain Text
Title : Forced
Language : Russian
Default : Yes
Forced : No

Text #2
ID : 7
Format : UTF-8
Codec ID : S_TEXT/UTF8
Codec ID/Info : UTF-8 Plain Text
Title : Full (Enigma)
Language : Russian
Default : No
Forced : No

Text #3
ID : 8
Format : UTF-8
Codec ID : S_TEXT/UTF8
Codec ID/Info : UTF-8 Plain Text
Title : Full
Language : English
Default : No
Forced : No

Text #4
ID : 9
Format : UTF-8
Codec ID : S_TEXT/UTF8
Codec ID/Info : UTF-8 Plain Text
Title : SDH
Language : English
Default : No
Forced : No

Menu
00:00:00.000 : en:Chapter 1
00:04:08.457 : en:Chapter 2
00:09:36.367 : en:Chapter 3
00:14:30.078 : en:Chapter 4
00:19:49.897 : en:Chapter 5
00:24:41.063 : en:Chapter 6
00:29:45.826 : en:Chapter 7
00:35:00.598 : en:Chapter 8
00:39:07.595 : en:Chapter 9
00:47:28.220 : en:Chapter 10
00:57:16.224 : en:Chapter 11
01:02:55.271 : en:Chapter 12
01:09:26.829 : en:Chapter 13
01:14:30.299 : en:Chapter 14
01:21:43.774 : en:Chapter 15
01:30:10.530 : en:Chapter 16
01:38:15.515 : en:Chapter 17
01:44:08.742 : en:Chapter 18
01:54:07.215 : en:Chapter 19
02:03:00.290 : en:Chapter 20
Релиз от:

Автор релиза: pb.wtf



Скачать Стекло через торрент https://c.radikal.ru/c16/1904/a4/49796b2f0b97.png Скачать фильм Стекло через торрент бесплантно в хорошем качестве Описание: Похититель с множественным расстройством личности и террорист-инвалид Мистер Стекло выходят на своих давних противников - ... 8.8 10 5
Info! Золотая раздача, скачанное не засчитывается.
Торрент: Зарегистрирован [2019-07-06 14:27] · скачан: 305 раз
Статус: √ проверено
Размер: 2.98 GB
Как cкачать? Как скачать Стекло через торрент | qTorrent

Отключить всю рекламу на сайте
    Дорогой пользователь! Огромная просьба, поблагодарите релизера, оцените раздачу и оставьте свои комментарий, если Вы скачали Стекло через торрент бесплатно! Внесите свою лепту в развитие PiratBit!
    Комментировать посты могут только пользователи прошедшие не сложную регистрацию
    Показать сообщения:    

    Стекло через торрент
    Скачать бесплатно Стекло
    Стекло скачать торрент
    Стекло смотреть онлайн
    Cкачать фильм Стекло бесплатно
    Стекло скачать торрент в хорошем качестве
    Стекло смотреть онлайн бесплатно в хорошем качестве


    Вы не можете начинать темы
    Вы не можете отвечать на сообщения
    Вы не можете редактировать свои сообщения
    Вы не можете удалять свои сообщения
    Вы не можете голосовать в опросах
    Вы не можете прикреплять файлы к сообщениям
    Вы можете скачивать файлы