новый адрес
Ссылка на приватное зеркало всего за 1$. Внимание количество ограничено!!!

iTunes

1+1

iTunes

мы

iTunes

1

iTunes

Чернобыль

iTunes

Ральф против интернета

Лицензия

ПШазам

Лицензия

Оно 2

Лицензия

30
pack

Вам бонус

ВАЖНО

!!Акция!!

Alien_RageХит недели

RePack

Resident Evil 21

ИГРА 18+

pack

RePack

jed

!!Акция!!

Alien_Rage

RePack

fifa19

RePack

Assassins Creed: Odyssey

RePack

NEED FOR SPEED™ PAYBACK

3 сезон

9 сезон

Бесстыжие 9 сезон

Все сериалы

все сериалы на PB.wtf

RePack

FAR CRY 5
Ребята, катастрофически не хватает 1900р. для оплаты серверов за Октябрь (всвязи с блокировками трафик упал в 3 раза), 1-2р., выручайте.
  

Плейбой под прикрытием / Nicky Larson et le parfum de Cupidon (Филипп Лашо / Philippe Lacheau) [2018, боевик, комедия, криминал, BDRip-AVC] [Dub] pb.wtf

Плейбой под прикрытием через торрент pb.wtf

Раздают: 17 [ 0 KB/s ]
Размер: 2.2 GB | Добавлен: 4 мес. 30 д. назад | Торрент скачан:313 раз
Скачать  

06-07-2019 14:51 Плейбой под прикрытием Скачать торрент  

Плейбой под прикрытием
Nicky Larson et le parfum de Cupidon

Страна: Франция
Жанр: боевик, комедия, криминал
Год выпуска: 2018
Продолжительность: 01:31:15

Перевод: Профессиональный (полное дублирование) [iTunes]
Субтитры: русские (полные), французские (полные)
Оригинальная аудиодорожка: французский

Режиссер: Филипп Лашо / Philippe Lacheau

В ролях: Филипп Лашо, Элоди Фонтан, Тарек Будали, Жюльен Аррути, Дидье Бурдон, Памела Андерсон, Жерар Жюньо, Камел Генфу, Одри Лами, Шанталь Ладезу

Описание: Частный детектив (и ловелас по совместительству), известный как Городской Охотник, получает на руки запутанное дело. По просьбе своей эффектной и неприступной напарницы сыщик соглашается взяться за работу. Теперь плейбою под прикрытием предстоит отправиться в Монако - на территорию больших денег и красивых женщин...



Релиз:

Автор рипа: stalkerok

Сэмпл

Качество видео: BDRip-AVC | Исходник: Nicky Larson et le parfum de Cupidon 2018 1080p Blu-ray AVC DTS-HD MA 5.1-WiHD
Формат видео: MKV
Видео кодек: AVC
Аудио кодек: AC3
Видео: AVC, 2611 Кбит/сек, 1152x482 (2.40:1), 24 кадр/сек
Аудио №1: AC3, 384 Кбит/сек, 48 КГц, 5.1 - русский
Аудио №2: AC3, 448 Кбит/сек, 48 КГц, 5.1 - французский
Навигация по главам: есть
---[Information] [06.07.2019 17:26:52] x264 [info]: frame I:1257 Avg QP:15.51 size: 74172
---[Information] [06.07.2019 17:26:52] x264 [info]: frame P:30487 Avg QP:17.15 size: 27700
---[Information] [06.07.2019 17:26:52] x264 [info]: frame B:99655 Avg QP:19.27 size: 8522

General
Unique ID : 120469314103526409601875684960255611103 (0x5AA18BC2CD0E124F70D16EA03C9410DF)
Complete name : C:\temp\Nicky Larson et le parfum de Cupidon\Nicky.Larson.et.le.parfum.de.Cupidon.2018.BDRip.x264.Rus.Fre.stalkerok.New-Team.mkv
Format : Matroska
Format version : Version 4
File size : 2.20 GiB
Duration : 1 h 31 min
Overall bit rate : 3 445 kb/s
Movie name : Nicky Larson et le parfum de Cupidon (2018) | Rip by stalkerok
Encoded date : UTC 2019-07-06 14:29:12
Writing application : mkvmerge v33.1.0 ('Primrose') 64-bit
Writing library : libebml v1.3.7 + libmatroska v1.5.0

Video
ID : 1
Format : AVC
Format/Info : Advanced Video Codec
Format profile : High@L4.1
Format settings : CABAC / 12 Ref Frames
Format settings, CABAC : Yes
Format settings, RefFrames : 12 frames
Codec ID : V_MPEG4/ISO/AVC
Duration : 1 h 31 min
Bit rate : 2 611 kb/s
Width : 1 152 pixels
Height : 482 pixels
Display aspect ratio : 2.40:1
Frame rate mode : Constant
Frame rate : 24.000 FPS
Color space : YUV
Chroma subsampling : 4:2:0
Bit depth : 8 bits
Scan type : Progressive
Bits/(Pixel*Frame) : 0.196
Stream size : 1.66 GiB (76%)
Title : Nicky Larson et le parfum de Cupidon (2018) | Rip by stalkerok
Writing library : x264 core 157 r2945 72db437
Encoding settings : cabac=1 / ref=12 / deblock=1:-3:-2 / analyse=0x3:0x133 / me=umh / subme=10 / psy=1 / psy_rd=1.00:0.00 / mixed_ref=1 / me_range=32 / chroma_me=1 / trellis=2 / 8x8dct=1 / cqm=0 / deadzone=21,11 / fast_pskip=0 / chroma_qp_offset=-2 / threads=12 / lookahead_threads=3 / sliced_threads=0 / nr=0 / decimate=1 / interlaced=0 / bluray_compat=0 / constrained_intra=0 / bframes=14 / b_pyramid=2 / b_adapt=2 / b_bias=0 / direct=3 / weightb=1 / open_gop=0 / weightp=2 / keyint=240 / keyint_min=23 / scenecut=40 / intra_refresh=0 / rc_lookahead=60 / rc=crf / mbtree=0 / crf=17.7 / qcomp=0.65 / qpmin=0 / qpmax=69 / qpstep=4 / vbv_maxrate=50000 / vbv_bufsize=62500 / crf_max=0.0 / nal_hrd=none / filler=0 / ip_ratio=1.40 / pb_ratio=1.30 / aq=3:0.80 / zones=127455,131398,q=30
Default : Yes
Forced : No

Audio #1
ID : 2
Format : AC-3
Format/Info : Audio Coding 3
Commercial name : Dolby Digital
Codec ID : A_AC3
Duration : 1 h 31 min
Bit rate mode : Constant
Bit rate : 384 kb/s
Channel(s) : 6 channels
Channel layout : L R C LFE Ls Rs
Sampling rate : 48.0 kHz
Frame rate : 31.250 FPS (1536 SPF)
Bit depth : 16 bits
Compression mode : Lossy
Stream size : 251 MiB (11%)
Title : Dub
Language : Russian
Service kind : Complete Main
Default : Yes
Forced : No

Audio #2
ID : 3
Format : AC-3
Format/Info : Audio Coding 3
Commercial name : Dolby Digital
Codec ID : A_AC3
Duration : 1 h 31 min
Bit rate mode : Constant
Bit rate : 448 kb/s
Channel(s) : 6 channels
Channel layout : L R C LFE Ls Rs
Sampling rate : 48.0 kHz
Frame rate : 31.250 FPS (1536 SPF)
Bit depth : 16 bits
Compression mode : Lossy
Stream size : 292 MiB (13%)
Language : French
Service kind : Complete Main
Default : No
Forced : No

Text #1
ID : 4
Format : UTF-8
Codec ID : S_TEXT/UTF8
Codec ID/Info : UTF-8 Plain Text
Duration : 1 h 30 min
Bit rate : 77 b/s
Count of elements : 1188
Stream size : 51.4 KiB (0%)
Title : Full
Language : Russian
Default : No
Forced : No

Text #2
ID : 5
Format : UTF-8
Codec ID : S_TEXT/UTF8
Codec ID/Info : UTF-8 Plain Text
Duration : 1 h 30 min
Bit rate : 61 b/s
Count of elements : 1743
Stream size : 40.5 KiB (0%)
Title : Full
Language : French
Default : No
Forced : No

Menu
00:00:00.000 : en:Chapter 01
00:06:35.542 : en:Chapter 02
00:17:02.208 : en:Chapter 03
00:26:28.583 : en:Chapter 04
00:33:25.500 : en:Chapter 05
00:40:12.375 : en:Chapter 06
00:48:23.792 : en:Chapter 07
00:53:50.375 : en:Chapter 08
01:04:50.708 : en:Chapter 09
01:09:02.292 : en:Chapter 10
01:20:15.667 : en:Chapter 11
01:28:28.292 : en:Chapter 12
pb.wtf



Скачать Плейбой под прикрытием через торрент http://i6.imageban.ru/out/2017/09/18/2ff75c0c358795c5946784cc1680714d.png Скачать фильм Плейбой под прикрытием через торрент бесплантно в хорошем качестве Описание: Частный детектив (и ловелас по совместительству), известный как Городской Охотник, получает на руки запутанное дело. По просьбе ... 9.4 10 8
Info! Золотая раздача, скачанное не засчитывается.
Торрент: Зарегистрирован [2019-07-06 14:51] · скачан: 313 раз
Статус: √ проверено
Размер: 2.2 GB
Как cкачать? Как скачать Плейбой под прикрытием через торрент | qTorrent

% Раздел Тема Автор DL S | L
Фильмы [HD 720p, 1080p] (Хороший звук DUB, MVO) [ 7.26 GB ] Плейбой под прикрытием / Nicky Larson et le parfum de Cupidon [2018 BDRip 1080p] DUB bober100 Скачать
5 | 0
Фильмы [HD 720p, 1080p] (Хороший звук DUB, MVO) [ 4.61 GB ] Плейбой под прикрытием / Nicky Larson et le parfum de Cupidon [2018 BDRip 720p] Dub potroks Скачать
4 | 0
Фильмы [HD 720p, 1080p] (Хороший звук DUB, MVO) [ 3.82 GB ] Плейбой под прикрытием / Nicky Larson et le parfum de Cupidon [2018 BDRip 720p] DUB bober100 Скачать
3 | 0
Фильмы 2018 [DVDrip, WEB-DLRip, HDrip] (DUB, MVO) [ 746 MB ] Плейбой под прикрытием / Nicky Larson et le parfum de Cupidon [2018 BDRip-AVC] sokol_ok Скачать
8 | 0
Фильмы 2018 [DVDrip, WEB-DLRip, HDrip] (DUB, MVO) [ 1.48 GB ] Плейбой под прикрытием / Nicky Larson et le parfum de Cupidon [2018 BDRip-AVC] sokol_ok Скачать
17 | 0
Фильмы 2018 [DVDrip, WEB-DLRip, HDrip] (DUB, MVO) [ 1.42 GB ] Плейбой под прикрытием / Nicky Larson et le parfum de Cupidon [2018 BDRip] - Twi7ter Скачать
18 | 0
Фильмы 2018 [DVDrip, WEB-DLRip, HDrip] (DUB, MVO) [ 1.46 GB ] Плейбой под прикрытием / Nicky Larson et le parfum de Cupidon [2018 BDRip] killermax2013 Скачать
3 | 0
Отключить всю рекламу на сайте

    Дорогой пользователь! Огромная просьба, поблагодарите релизера, оцените раздачу и оставьте свои комментарий, если Вы скачали Плейбой под прикрытием через торрент бесплатно! Внесите свою лепту в развитие PiratBit!
    Комментировать посты могут только пользователи прошедшие не сложную регистрацию
    Показать сообщения:    

    Плейбой под прикрытием через торрент
    Скачать бесплатно Плейбой под прикрытием
    Плейбой под прикрытием скачать торрент
    Плейбой под прикрытием смотреть онлайн
    Cкачать фильм Плейбой под прикрытием бесплатно
    Плейбой под прикрытием скачать торрент в хорошем качестве
    Плейбой под прикрытием смотреть онлайн бесплатно в хорошем качестве


    Вы не можете начинать темы
    Вы не можете отвечать на сообщения
    Вы не можете редактировать свои сообщения
    Вы не можете удалять свои сообщения
    Вы не можете голосовать в опросах
    Вы не можете прикреплять файлы к сообщениям
    Вы можете скачивать файлы