Всегда рабочее зеркало без VPN и Proxy просто перед .vidak.icu напиши любое слово или цифру, Пример http://7ad3.vidak.icu

MVO

2 сезон

1 сезон

1

1 сезон

iTunes

2 сезон

13

1 сезон

Распродажа

pack

Рекомендуем

Пиратка

30

ВАЖНО

RePack

MK11

RePack

jed

RePack

fifa19

RePack

RDR2

RePack

NEED FOR SPEED™ PAYBACK

Кинопоиск HD

6 сезон

 Острые козырьки 6 сезон

Все сериалы

все сериалы на PB.wtf

RePack

FAR CRY 5

Anonymous, нам критически не хватает 5601 руб. на оплату серверов и переферии за Апрель, помоги нам пожалуйста, вся надежда только на тебя. В благодарность мы отключим тебе всю рекламу на сайте!

×
  
Magnet ссылка

Коллекционер / The Collector (Уильям Уайлер / William Wyler) [1965 г., Триллер, драма, BDRip 720p от KORSAR][MVO] pb.wtf

Коллекционер через торрент pb.wtf

Размер: 9.95 GB | Добавлен: 2 года 10 мес. назад | Торрент скачан:13 раз
Смотреть онлайн Коллекционер | Скачать    Ребята, помогите собрать деньги на оплату серверов!!!

06-07-2019 22:40 Коллекционер Скачать торрент  

Название: Коллекционер
Оригинальное название: The Collector
Год выпуска: 1965
Жанр: Триллер, драма, экранизация
Продолжительность: 01:59:12
Перевод: Профессиональный многоголосый
Выпущено: Великобритания, США, Collector Company, Columbia Pictures Corporation

Режиссер: Уильям Уайлер
В ролях: Теренс Стэмп, Саманта Эггар, Мона Уошборн, Морис Дэллимор, Аллисон Амес, Гордон Барклай, Уильям Биклей, Дэвид Хэвиланд, Кеннет Мор, Эдина Ронай

Описание: Экранизация романа Джона Роберта Фаулза (John Robert Fowles), 1963
Для мелкого клерка, страдающего комплексом неполноценности, смыслом жизни было коллекционирование бабочек. Но однажды его коллекция пополняется необычным "экспонатом". Им становится красивая студентка, в которую он безнадежно влюблен. Не видя другого способа заполучить девушку, он похищает ее и прячет в уединенном особняке. Похититель обещает отпустить пленницу через месяц. Ему кажется, это достаточный срок для того, чтобы она смогла его полюбить…

rating

Качество: BDRip 720p
Формат: MKV
Видео: MPEG-4 AVC, 11,4 Мбит/сек, 1274x690, 23,976 кадра/сек
Аудио #1: AC3, 2 ch, 192 Кбит/сек | Русский, профессиональный (многоголосый закадровый)
Аудио #2: AC3, 2 ch, 384 Кбит/сек | Английский, оригинал
Субтитры: Русские, английские
Навигация по главам: Есть

Релиз от:
x264 [info]: frame I:916 Avg QP:18.50 size:153063
x264 [info]: frame P:29948 Avg QP:19.81 size:105478
x264 [info]: frame B:140616 Avg QP:21.99 size: 48812
-----------------------------------------------------
Общее
Уникальный идентификатор : 184395531752123848847394381518195096415 (0x8AB949A18C0B11DC8215ADA59ADB7B5F)
Полное имя : Коллекционер.1965.BDRip.720p.KORSAR.mkv
Формат : Matroska
Версия формата : Version 2
Размер файла : 9,95 Гбайт
Продолжительность : 1 ч. 59 м.
Общий поток : 11,9 Мбит/сек
Дата кодирования : UTC 2018-10-20 11:25:30
Программа кодирования : mkvmerge v5.8.0 ('No Sleep / Pillow') built on Sep 2 2012 15:37:04
Библиотека кодирования : libebml v1.2.3 + libmatroska v1.3.0

Видео
Идентификатор : 1
Формат : AVC
Формат/Информация : Advanced Video Codec
Профиль формата : High@L4.1
Настройки формата : CABAC / 9 Ref Frames
Параметр CABAC формата : Да
Параметр RefFrames формата : 9 кадров
Идентификатор кодека : V_MPEG4/ISO/AVC
Продолжительность : 1 ч. 59 м.
Битрейт : 11,4 Мбит/сек
Ширина : 1274 пикселя
Высота : 690 пикселей
Соотношение сторон : 1,85:1
Режим частоты кадров : Постоянный
Частота кадров : 23,976 (24000/1001) кадра/сек
Цветовое пространство : YUV
Субдискретизация насыщенности : 4:2:0
Битовая глубина : 8 бит
Тип развёртки : Прогрессивная
Бит/(Пиксели*Кадры) : 0.539
Размер потока : 9,27 Гбайт (93%)
Заголовок : RIP | MZMA
Библиотека кодирования : x264 core 152 r2851kMod ba24899
Настройки программы : cabac=1 / ref=9 / deblock=1:-2:-2 / analyse=0x3:0x113 / me=umh / subme=11 / psy=1 / fade_compensate=0.00 / psy_rd=1.00:0.00 / mixed_ref=1 / me_range=48 / chroma_me=1 / trellis=2 / 8x8dct=1 / cqm=0 / deadzone=21,11 / fast_pskip=0 / chroma_qp_offset=-2 / threads=6 / lookahead_threads=1 / sliced_threads=0 / nr=0 / decimate=0 / interlaced=0 / bluray_compat=0 / constrained_intra=0 / bframes=16 / b_pyramid=2 / b_adapt=2 / b_bias=0 / direct=3 / weightb=1 / open_gop=0 / weightp=2 / keyint=240 / keyint_min=23 / scenecut=40 / intra_refresh=0 / rc_lookahead=40 / rc=2pass / mbtree=0 / bitrate=11370 / ratetol=1.0 / qcomp=0.60 / qpmin=0 / qpmax=69 / qpstep=4 / cplxblur=20.0 / qblur=0.5 / vbv_maxrate=50000 / vbv_bufsize=62500 / nal_hrd=none / filler=0 / ip_ratio=1.15 / pb_ratio=1.30 / aq=1:0.70
Язык : English
По умолчанию : Да
Принудительно : Нет
Цветовой диапазон : Limited
Основные цвета : BT.709
Характеристики трансфера : BT.709
Коэффициенты матрицы : BT.709

Аудио #1
Идентификатор : 2
Формат : AC-3
Формат/Информация : Audio Coding 3
Идентификатор кодека : A_AC3
Продолжительность : 1 ч. 59 м.
Вид битрейта : Постоянный
Битрейт : 192 Кбит/сек
Каналы : 2 канала
Расположение каналов : Front: L R
Частота : 48,0 КГц
Частота кадров : 31,250 кадров/сек (1536 SPF)
Битовая глубина : 16 бит
Метод сжатия : С потерями
Размер потока : 164 Мбайт (2%)
Заголовок : MVO
Язык : Russian
По умолчанию : Да
Принудительно : Нет

Аудио #2
Идентификатор : 3
Формат : AC-3
Формат/Информация : Audio Coding 3
Идентификатор кодека : A_AC3
Продолжительность : 1 ч. 59 м.
Вид битрейта : Постоянный
Битрейт : 384 Кбит/сек
Каналы : 2 канала
Расположение каналов : Front: L R
Частота : 48,0 КГц
Частота кадров : 31,250 кадров/сек (1536 SPF)
Битовая глубина : 16 бит
Метод сжатия : С потерями
Размер потока : 327 Мбайт (3%)
Заголовок : Original
Язык : English
По умолчанию : Нет
Принудительно : Нет

Текст #1
Идентификатор : 4
Формат : UTF-8
Идентификатор кодека : S_TEXT/UTF8
Идентификатор кодека/Информация : UTF-8 Plain Text
Язык : Russian
По умолчанию : Нет
Принудительно : Нет

Текст #2
Идентификатор : 5
Формат : UTF-8
Идентификатор кодека : S_TEXT/UTF8
Идентификатор кодека/Информация : UTF-8 Plain Text
Язык : English
По умолчанию : Нет
Принудительно : Нет

Текст #3
Идентификатор : 6
Формат : UTF-8
Идентификатор кодека : S_TEXT/UTF8
Идентификатор кодека/Информация : UTF-8 Plain Text
Заголовок : SDH
Язык : English
По умолчанию : Нет
Принудительно : Нет

Меню
00:00:00.000 : en:Chapter 01
00:10:07.190 : en:Chapter 02
00:16:30.823 : en:Chapter 03
00:24:25.005 : en:Chapter 04
00:32:38.957 : en:Chapter 05
00:40:39.979 : en:Chapter 06
00:46:57.106 : en:Chapter 07
00:50:05.669 : en:Chapter 08
00:59:41.828 : en:Chapter 09
01:05:38.434 : en:Chapter 10
01:12:09.283 : en:Chapter 11
01:19:15.918 : en:Chapter 12
01:26:36.066 : en:Chapter 13
01:33:11.336 : en:Chapter 14
01:41:56.402 : en:Chapter 15
01:48:59.950 : en:Chapter 16
01:57:27.000 : en:Chapter 17
скриншот  скриншот  скриншот  скриншот  скриншот  скриншот  скриншот  скриншот  
pb.wtf



Скачать Коллекционер через торрент http://lostpic.net/images/76363f985349e96631651d8be83b594d.png Скачать, смотреть онлайн Коллекционер бесплантно в хорошем качестве Описание: Экранизация романа Джона Роберта Фаулза (John Robert Fowles), 1963Для мелкого клерка, страдающего комплексом неполноценности, ... 10 10 2
Info! Золотая раздача, скачанное не засчитывается.
Торрент: Зарегистрирован [2019-07-06 22:40] · скачан: 13 раз
Статус: √ проверено
Размер: 9.95 GB
Как cкачать? Как скачать Коллекционер через торрент | UTorrent

% Раздел Тема Автор DL S | L
Фильмы [HD 720p, 1080p] (Хороший звук DUB, MVO) [ 11.38 GB ] Коллекционер / The Collector [2009 BDRip-HEVC 1080p ] DUB bober100 Скачать
1 | 0
Зарубежные сериалы [ 14.81 GB ] Собиратель душ / Коллекционер человеческих душ / The Collector / 1-3 сезоны / Cерии:1-40 [2004-2006 TVRip] MVO lug30 Скачать
1 | 0
Фильмы 2009 [ 1.37 GB ] Коллекционер / The Collector [2009 HDRip лицензия] SD Скачать
1 | 0
Фильмы (DVD фильмы) [ 5.79 GB ] Коллекционер / The Collector [2009 DVD9 лицензия] nickson-82 Скачать
1 | 0
Фильмы с авторской озвучкой [ 1.95 GB ] Коллекционер / The Collector [2009 BDRip-AVC] AVO + Original + Comments + Subs Kristian Larsson Скачать
1 | 0

28-11-2019 20:33  

Отключить всю рекламу на сайте

    Дорогой пользователь! Огромная просьба, поблагодарите релизера, оцените раздачу и оставьте свои комментарий, если Вы скачали Коллекционер через торрент бесплатно!
    Комментировать посты могут только пользователи прошедшие не сложную регистрацию
    Показать сообщения:    

    Коллекционер через торрент
    Скачать бесплатно Коллекционер
    Коллекционер скачать торрент
    Коллекционер смотреть онлайн
    Cкачать фильм Коллекционер бесплатно
    Коллекционер скачать торрент в хорошем качестве
    Коллекционер смотреть онлайн бесплатно в хорошем качестве


    Вы не можете начинать темы
    Вы не можете отвечать на сообщения
    Вы не можете редактировать свои сообщения
    Вы не можете удалять свои сообщения
    Вы не можете голосовать в опросах
    Вы не можете прикреплять файлы к сообщениям
    Вы можете скачивать файлы