Ссылка на приватное зеркало всего за 1$. Внимание количество ограничено!!!

iTunes

1+1

iTunes

мы

WEB-DL

1

iTunes

Чернобыль

iTunes

Ральф против интернета

Лицензия

ПШазам

Лицензия

Оно 2

Лицензия

30
pack

Вам бонус

ВАЖНО

!!Акция!!

Alien_RageХит недели

RePack

Resident Evil 21

ИГРА 18+

pack

RePack

jed

!!Акция!!

Alien_Rage

RePack

fifa19

RePack

Assassins Creed: Odyssey

RePack

NEED FOR SPEED™ PAYBACK

3 сезон

9 сезон

Бесстыжие 9 сезон

Все сериалы

все сериалы на PB.wtf

RePack

FAR CRY 5
Ребята, катастрофически не хватает 1900р. для оплаты серверов за Октябрь (всвязи с блокировками трафик упал в 3 раза), 1-2р., выручайте.
  

При исполнении служебных обязанностей (Илья Гурин) [1963, СССР, драма, DVDRip от AVP Studio] pb.wtf

При исполнении служебных обязанностей через торрент pb.wtf

Качают: 1 [ 0 KB/s ]
Размер: 1.09 GB | Добавлен: 5 мес. 6 д. назад | Торрент скачан:15 раз
Скачать  

07-07-2019 08:00 При исполнении служебных обязанностей Скачать торрент  

При исполнении служебных обязанностей
Страна: СССР
Производство: Киностудия им. Горького

Жанр: драма
Год выпуска: 1963
Продолжительность: 01:36:00

Перевод: Не требуется
Cубтитры: нет
Оригинальная аудиодорожка: русский

Режиссер: Илья Гурин

В ролях:
Сергей Плотников, Лев Круглый, Марина Хатунцева, Юрий Саранцев, Артём Карапетян, Алексей Эйбоженко, Павел Махотин, Георгий Шевцов, Алексей Зайцев, Николай Новлянский, Иван Кузнецов...
Об актёрах подробней

Описание:
Полярные летчики Струмилин и сын его фронтового друга Павел спасают ученых со льдины. Не хватает мест, и Струмилин остается на льдине, уступив одному из ученых свое место в кабине. Павел возвращается, но друг отца его не дождался…

Источник: DVD5 R5
Качество видео: DVDRip
Формат видео: AVI

Видео: 688х512 (4:3), 25,000 fps, XviD ~ 1423 kbps avg, 0.162 bit/pixel
Аудио: 48 kHz, Dolby Digital AC3 2.0, 192 kbps

Раздача от:
Общее
Полное имя : Pri.ispolnenii.sluzhebnyh.obyazannostey.1963.DVDRip_[New-team]_by_AVP_Studio.avi
Формат : AVI
Формат/Информация : Audio Video Interleave
Размер файла : 1,09 Гбайт
Продолжительность : 1 ч. 35 м.
Общий поток : 1625 Кбит/сек
Программа кодирования : VirtualDubMod 1.5.10.3 | www.virtualdub-fr.org || (build 2550/release)
Библиотека кодирования : VirtualDubMod build 2550/release

Видео
Идентификатор : 0
Формат : MPEG-4 Visual
Профиль формата : Advanced Simple@L5
Настройки формата : BVOP1 / Custom Matrix
Параметр BVOP формата : 1
Параметр QPel формата : Нет
Параметр GMC формата : Без точки перехода
Параметр матрицы формата : Выборочная
Идентификатор кодека : XVID
Идентификатор кодека/Подсказка : XviD
Продолжительность : 1 ч. 35 м.
Битрейт : 1423 Кбит/сек
Ширина : 688 пикселей
Высота : 512 пикселей
Соотношение сторон : 4:3
Частота кадров : 25,000 кадров/сек
Цветовое пространство : YUV
Субдискретизация насыщенности : 4:2:0
Битовая глубина : 8 бит
Тип развёртки : Прогрессивная
Метод сжатия : С потерями
Бит/(Пиксели*Кадры) : 0.162
Размер потока : 977 Мбайт (88%)
Библиотека кодирования : XviD 73

Аудио
Идентификатор : 1
Формат : AC-3
Формат/Информация : Audio Coding 3
Коммерческое название : Dolby Digital
Идентификатор кодека : 2000
Продолжительность : 1 ч. 35 м.
Вид битрейта : Постоянный
Битрейт : 192 Кбит/сек
Каналы : 2 канала
ChannelLayout : L R
Частота : 48,0 КГц
Частота кадров : 31,250 кадров/сек (1536 SPF)
Битовая глубина : 16 бит
Метод сжатия : С потерями
Размер потока : 132 Мбайт (12%)
Выравнивание : Разделение по промежуткам
Продолжительность промежутка : 40 мс. (1,00 видеокадр)
Время предзагрузки промежутка : 500 мс
pb.wtf



Скачать При исполнении служебных обязанностей через торрент http://d.radikal.ru/d41/1911/77/b18997be4db8.png Скачать фильм При исполнении служебных обязанностей через торрент бесплантно в хорошем качестве Описание:Полярные летчики Струмилин и сын его фронтового друга Павел спасают ученых со льдины. Не хватает мест, и Струмилин остается на ... 10 10 1
Торрент: Зарегистрирован [2019-07-07 08:00] · скачан: 15 раз
Статус: √ проверено
Размер: 1.09 GB
Как cкачать? Как скачать При исполнении служебных обязанностей через торрент | qTorrent

% Раздел Тема Автор DL S | L
Кино СССР [ 1.09 GB ] При исполнении служебных обязанностей [1963 СССР DVDRip-AVC от AVP Studio] AVP Studio Скачать
3 | 1

28-11-2019 20:33  

Отключить всю рекламу на сайте

    Дорогой пользователь! Огромная просьба, поблагодарите релизера, оцените раздачу и оставьте свои комментарий, если Вы скачали При исполнении служебных обязанностей через торрент бесплатно! Внесите свою лепту в развитие PiratBit!
    Комментировать посты могут только пользователи прошедшие не сложную регистрацию
    Показать сообщения:    

    При исполнении служебных обязанностей через торрент
    Скачать бесплатно При исполнении служебных обязанностей
    При исполнении служебных обязанностей скачать торрент
    При исполнении служебных обязанностей смотреть онлайн
    Cкачать фильм При исполнении служебных обязанностей бесплатно
    При исполнении служебных обязанностей скачать торрент в хорошем качестве
    При исполнении служебных обязанностей смотреть онлайн бесплатно в хорошем качестве


    Вы не можете начинать темы
    Вы не можете отвечать на сообщения
    Вы не можете редактировать свои сообщения
    Вы не можете удалять свои сообщения
    Вы не можете голосовать в опросах
    Вы не можете прикреплять файлы к сообщениям
    Вы можете скачивать файлы