Достать ножи: Стеклянная луковица

MVO

Добыча

Дубляж

Уэнсдэй

1 сезон

Тор

Дубляж

13 клиническая

1 сезон

Жестокая ночь

MVO

Одни из нас

1 сезон

Deluxe

pack

Рекомендуем

30

Пиратка

ВАЖНО

ВАЖНО

Ghostwire

Пиратка

jed

RePack

nioh2

RePack

RDR2

RePack

NEED FOR SPEED™ PAYBACK

RePack

скачать торрент

Кинопоиск HD

Острые козырьки 6 сезон

6 сезон

FAR CRY 6

RePack

скачать торрент

Лицензия

скачать торрент

MVO

1

1 сезон

скачать торрент

1 сезон

скачать торрент

Лицензия

  

Ниндзя / Ninja (Айзек Флорентайн) [2009, драма, боевик, криминал, триллер, BDRip 720p ] DVO

Ниндзя через торрент pb.wtf

Качают: 1 [ 0 KB/s ]
Размер: 2.83 GB | Добавлен: 3 года 6 мес. назад | Торрент скачан:93 раза
Смотреть онлайн | Скачать | Поддержите нас   

07-07-2019 08:27 Ниндзя Скачать торрент  

Название: Ниндзя
Оригинальное название: Ninja
Год выпуска: 2009
Страна: США
Жанр: драма, боевик, криминал, триллер
Продолжительность: 01:26:41
Перевод: профессиональный двухголосый

Режиссер: Айзек Флорентайн
В ролях: Скотт Эдкинс, Мика Хиджии, Тодд Дженсен, Того Игава, Гаррик Хэгон, Майлз Андерсон, Валентин Ганев, Николай Сотиров

Описание: В незапамятные времена в Японии существовали воины, владеющие искусством ниндзюцу и оружием, делавшим их непобедимыми. Хотя в 17 веке ниндзя были объявлены вне закона, их традиции передавались из поколения в поколение, как и их оружие. Молодой гайдзин Кейси, постигающий в Японии искусство ниндзюцу, по просьбе своего сэнсэя возвращается в Нью-Йорк, чтобы защитить Ёрой Бицу — кованый сундук, в котором хранится оружие последнего клана ниндзя Кога. На него польстился Масадзука — бывший ученик школы того же сэнсэя, выгнанный за неподобающее поведение и попытку убить Кейси... (Википедия)



Качество: BDRip 720p
Формат: MKV
Видео: MPEG-4 AVC, 5913 Кбит/с, 1280x532
Аудио 1: русский, AC3, 448 kbps, 6 ch, 48 kHz [закадровый двухголосый, R5]
Аудио 2: английский, AC3, 448 kbps, 6 ch, 48 kHz [оригинал]
Субтитры 1: русские
Субтитры 2: английские
Главы/чаптеры
Общее
Уникальный идентификатор : 211016466607232961275101091051847976802 (0x9EC04B0DD442786D8AED6388B26A8762)
Полное имя : D:\Video\Ниндзя.2009.BDRip 720p by msltel.mkv
Формат : Matroska
Версия формата : Version 4
Размер файла : 2,83 Гбайт
Продолжительность : 1 ч. 26 м.
Общий поток : 4695 Кбит/сек
Название фильма : Rip by msltel
Дата кодирования : UTC 2019-07-07 05:08:55
Программа кодирования : mkvmerge v8.2.0 ('World of Adventure') 64bit
Библиотека кодирования : libebml v1.3.1 + libmatroska v1.4.2

Видео
Идентификатор : 1
Формат : AVC
Формат/Информация : Advanced Video Codec
Профиль формата : [email protected]
Настройки формата : CABAC / 9 Ref Frames
Параметр CABAC формата : Да
Параметр RefFrames формата : 9 кадров
Идентификатор кодека : V_MPEG4/ISO/AVC
Продолжительность : 1 ч. 26 м.
Битрейт : 3797 Кбит/сек
Ширина : 1280 пикселей
Высота : 532 пикселя
Соотношение сторон : 2,40:1
Режим частоты кадров : Постоянный
Частота кадров : 23,976 (24000/1001) кадра/сек
Цветовое пространство : YUV
Субдискретизация насыщенности : 4:2:0
Битовая глубина : 8 бит
Тип развёртки : Прогрессивная
Бит/(Пиксели*Кадры) : 0.233
Размер потока : 2,29 Гбайт (81%)
Библиотека кодирования : x264 core 157 r2935 545de2f
Настройки программы : cabac=1 / ref=9 / deblock=1:-2:-2 / analyse=0x3:0x113 / me=umh / subme=11 / psy=1 / psy_rd=1.00:0.15 / mixed_ref=1 / me_range=32 / chroma_me=1 / trellis=2 / 8x8dct=1 / cqm=0 / deadzone=21,11 / fast_pskip=0 / chroma_qp_offset=-3 / threads=6 / lookahead_threads=1 / sliced_threads=0 / nr=0 / decimate=1 / interlaced=0 / bluray_compat=0 / constrained_intra=0 / bframes=7 / b_pyramid=2 / b_adapt=2 / b_bias=0 / direct=1 / weightb=1 / open_gop=0 / weightp=2 / keyint=230 / keyint_min=23 / scenecut=40 / intra_refresh=0 / rc_lookahead=40 / rc=crf / mbtree=1 / crf=19.0 / qcomp=0.60 / qpmin=0 / qpmax=69 / qpstep=4 / vbv_maxrate=50000 / vbv_bufsize=62500 / crf_max=0.0 / nal_hrd=none / filler=0 / ip_ratio=1.40 / aq=1:1.00
Язык : English
Default : Да
Forced : Нет

Аудио #1
Идентификатор : 2
Формат : AC-3
Формат/Информация : Audio Coding 3
Коммерческое название : Dolby Digital
Идентификатор кодека : A_AC3
Продолжительность : 1 ч. 26 м.
Вид битрейта : Постоянный
Битрейт : 448 Кбит/сек
Каналы : 6 каналов
ChannelLayout : L R C LFE Ls Rs
Частота : 48,0 КГц
Частота кадров : 31,250 кадров/сек (1536 SPF)
Битовая глубина : 16 бит
Метод сжатия : С потерями
Размер потока : 277 Мбайт (10%)
Заголовок : DVO R5
Язык : Russian
ServiceKind/String : Complete Main
Default : Да
Forced : Нет

Аудио #2
Идентификатор : 3
Формат : AC-3
Формат/Информация : Audio Coding 3
Коммерческое название : Dolby Digital
Идентификатор кодека : A_AC3
Продолжительность : 1 ч. 26 м.
Вид битрейта : Постоянный
Битрейт : 448 Кбит/сек
Каналы : 6 каналов
ChannelLayout : L R C LFE Ls Rs
Частота : 48,0 КГц
Частота кадров : 31,250 кадров/сек (1536 SPF)
Битовая глубина : 16 бит
Метод сжатия : С потерями
Размер потока : 277 Мбайт (10%)
Заголовок : original
Язык : English
ServiceKind/String : Complete Main
Default : Нет
Forced : Нет

Текст #1
Идентификатор : 4
Формат : UTF-8
Идентификатор кодека : S_TEXT/UTF8
Идентификатор кодека/Информация : UTF-8 Plain Text
Продолжительность : 1 ч. 22 м.
Битрейт : 38 бит/сек
ElementCount : 501
Размер потока : 23,0 Кбайт (0%)
Заголовок : русские
Язык : Russian
Default : Нет
Forced : Нет

Текст #2
Идентификатор : 5
Формат : UTF-8
Идентификатор кодека : S_TEXT/UTF8
Идентификатор кодека/Информация : UTF-8 Plain Text
Продолжительность : 1 ч. 20 м.
Битрейт : 17 бит/сек
ElementCount : 371
Размер потока : 10,5 Кбайт (0%)
Заголовок : английские
Язык : English
Default : Нет
Forced : Нет

Меню
00:00:00.000 : :Chapter 1
00:08:21.041 : :Chapter 2
00:13:35.398 : :Chapter 3
00:19:56.028 : :Chapter 4
00:29:31.769 : :Chapter 5
00:35:37.969 : :Chapter 6
00:41:23.815 : :Chapter 7
00:50:53.092 : :Chapter 8
00:58:54.489 : :Chapter 9
01:08:23.224 : :Chapter 10
01:17:41.113 : :Chapter 11
01:22:12.886 : :Chapter 12



Скачать Ниндзя через торрент https://a.radikal.ru/a25/1907/bb/369dfeee965b.jpg Скачать, смотреть онлайн Ниндзя бесплантно в хорошем качестве Описание: В незапамятные времена в Японии существовали воины, владеющие искусством ниндзюцу и оружием, делавшим их непобедимыми. Хотя в 17 ... 9 10 8
Info! Золотая раздача, скачанное не засчитывается.
Торрент: Зарегистрирован [2019-07-07 08:27] · скачан: 93 раз
Статус: √ проверено
Размер: 2.83 GB
Как cкачать? Как скачать Ниндзя через торрент | UTorrent

% Раздел Тема Автор DL S | L
Фильмы [HD 720p, 1080p] (Хороший звук DUB, MVO) [ 7.91 GB ] Ниндзя / Ninja | | 1080p msltel Скачать
1 | 0
Фильмы [HD 720p, 1080p] (Хороший звук DUB, MVO) [ 7.05 GB ] Ниндзя 2 / Ninja: Shadow of a Tear | | 1080p msltel Скачать
1 | 0
Фильмы 2013 (Звук TS, Cam, VO, DVO) [ 2.05 GB ] Ниндзя 2 / Ninja: Shadow of a Tear | | BDRip Ворон Скачать
1 | 0
Фильмы 2013 [DVDrip, WEB-DLRip, HDrip] [ 2.18 GB ] Ниндзя 2 / Ninja: Shadow of a Tear | | BDRip-AVC potroks Скачать
1 | 0
Фильмы (Blu-ray, BD-Remux, HDDVD) [ 17.4 GB ] Ниндзя 2 / Ninja: Shadow of a Tear | | BDRemux 1080, DVO кэп Скачать
1 | 0

28-11-2019 20:33  


Отключить вcю реклaмy на сайте, в т.ч. и в плеере онлайн просмотра!

    Дорогой пользователь! Огромная просьба, поблагодарите релизера, оцените раздачу и оставьте свои комментарий, если Вы скачали Ниндзя через торрент бесплатно!!
    Комментировать посты могут только пользователи прошедшие не сложную регистрацию
    Показать сообщения:    


    Ниндзя через торрент
    Скачать бесплатно Ниндзя
    Ниндзя скачать торрент
    Ниндзя смотреть онлайн
    Cкачать фильм Ниндзя бесплатно
    Ниндзя скачать торрент в хорошем качестве
    Ниндзя смотреть онлайн бесплатно в хорошем качестве
    Вы не можете начинать темы
    Вы не можете отвечать на сообщения
    Вы не можете редактировать свои сообщения
    Вы не можете удалять свои сообщения
    Вы не можете голосовать в опросах
    Вы не можете прикреплять файлы к сообщениям
    Вы можете скачивать файлы
    Ниндзя / Ninja [2009, драма, боевик, криминал, триллер, BDRip 720p ] DVO смотреть онлайн, скачать торрент picoco.icu