Ссылка на приватное зеркало нашего сайта всего за 1$. Внимание количество ограничено!!!

2 сезон

iTunes

1 сезон

1

2 сезон

2 сезон

iTunes

1 сезон

RePack

30

Ultimate

ВАЖНО

ИГРА 18+

pack

RePack

MK11
pack

Забери бонус

RePack

jed

!!Акция!!

Alien_Rage

RePack

fifa19

RePack

Assassins Creed: Odyssey

RePack

NEED FOR SPEED™ PAYBACK

4 сезон

9 сезон

Бесстыжие 9 сезон

Все сериалы

все сериалы на PB.wtf

RePack

FAR CRY 5
  

Самый громкий голос / The Loudest Voice / Сезон: 1 / Серия 2 из 7 (Кари Скогланд, Джереми Подесва, Стивен Фрирз) [2019, драма, UHD WEB-DL 2160p] [SDR] MVO [Amedia] pb.wtf

Самый громкий голос через торрент pb.wtf

Размер: 10.93 GB | Добавлен: 1 год 4 мес. назад | Торрент скачан:4 раза
Скачать  

07-07-2019 10:55 Самый громкий голос Скачать торрент  

Самый громкий голос / The Loudest Voice

Год выпуска: 2019
Страна: США
Жанр: драма
Продолжительность: 2 x ~ 00:55:00
Перевод: Профессиональный (многоголосый закадровый) [Amedia]
Субтитры: Русские, английские
Реклама: Отсутствует
Режиссер: Кари Скогланд, Джереми Подесва, Стивен Фрирз
В ролях:

Рассел Кроу (Roger Ailes), Сиенна Миллер (Beth Ailes), Сет МакФарлейн (Brian Lewis), Аннабелль Уоллис (Laurie Luhn), Наоми Уоттс (Gretchen Carlson), Саймон МакБерни (Rupert Murdoch), Алекса Палладино (Judy Laterza), Джош Стэмберг (Bill Shine), МакКензи Эстин (John Moody), Люси Оуэн (Suzanne Scott), Сьюзан Пурфар (Dianne Brandi), Дженна Ли Грин (Irena Briganti)
Описание:
В центре сюжета сериала находится известная медийная персона - Роджер Айлз, основатель американского канала Fox News, а также активный политический деятель, оказавший значительное влияние на развитие Республиканской партии США. Будучи весьма противоречивой личностью, он пережил множество взлетов и падений, а его телевизионное "детище" навсегда изменило представление о современных новостных проектах.
Рейтинг:

Качество: UHD WEB-DL 2160p
Формат: MKV
Видео: HEVC 10 bit, 3840x2160 (16:9), 23.976 fps, 14700 kbps
Аудио №1: русский / AC3, 48 kHz, 6 ch, 384 kbps
Аудио №2: английский / E-AC3, 48 kHz, 6 ch, 448 kbps

Общее
Уникальный идентификатор : 72056118021707885609343913509233334635 (0x363580E7D43D95E4343EFBDBB653996B)
Полное имя : The.Loudest.Voice.S01E01.2160p.WEB.H265\The.Loudest.Voice.S01E01.2160p.WEB.H265.mkv
Формат : Matroska
Версия формата : Version 4
Размер файла : 5,78 Гбайт
Продолжительность : 53 м. 21 с.
Общий поток : 15,5 Мбит/сек
Дата кодирования : UTC 2019-07-05 11:47:47
Программа кодирования : mkvmerge v35.0.0 ('All The Love In The World') 64-bit
Библиотека кодирования : libebml v1.3.9 + libmatroska v1.5.2

Видео
Идентификатор : 1
Формат : HEVC
Формат/Информация : High Efficiency Video Coding
Профиль формата : Main 10@L5.1@Main
Идентификатор кодека : V_MPEGH/ISO/HEVC
Продолжительность : 53 м. 21 с.
Битрейт : 14,7 Мбит/сек
Ширина : 3840 пикселей
Высота : 2076 пикселей
Высота оригинала : 2160 пикселей
Соотношение сторон : 16:9
Режим частоты кадров : Постоянный
Частота кадров : 23,976 (24000/1001) кадра/сек
Частота кадров в оригинале : 23,976 (23976/1000) кадра/сек
Цветовое пространство : YUV
Субдискретизация насыщенности : 4:2:0
Битовая глубина : 10 бит
Бит/(Пиксели*Кадры) : 0.077
Размер потока : 5,46 Гбайт (95%)
Язык : English
Default : Да
Forced : Нет

Аудио #1
Идентификатор : 2
Формат : AC-3
Формат/Информация : Audio Coding 3
Коммерческое название : Dolby Digital
Идентификатор кодека : A_AC3
Продолжительность : 53 м. 21 с.
Вид битрейта : Постоянный
Битрейт : 384 Кбит/сек
Каналы : 6 каналов
ChannelLayout : L R C LFE Ls Rs
Частота : 48,0 КГц
Частота кадров : 31,250 кадров/сек (1536 SPF)
Битовая глубина : 16 бит
Метод сжатия : С потерями
Размер потока : 147 Мбайт (2%)
Язык : Russian
ServiceKind/String : Complete Main
Default : Да
Forced : Нет

Аудио #2
Идентификатор : 3
Формат : E-AC-3
Формат/Информация : Enhanced AC-3
Коммерческое название : Dolby Digital Plus
Идентификатор кодека : A_EAC3
Продолжительность : 53 м. 21 с.
Вид битрейта : Постоянный
Битрейт : 448 Кбит/сек
Каналы : 6 каналов
ChannelLayout : L R C LFE Ls Rs
Частота : 48,0 КГц
Частота кадров : 31,250 кадров/сек (1536 SPF)
Метод сжатия : С потерями
Размер потока : 171 Мбайт (3%)
Язык : English
ServiceKind/String : Complete Main
Default : Нет
Forced : Нет

Текст #1
Идентификатор : 4
Формат : UTF-8
Идентификатор кодека : S_TEXT/UTF8
Идентификатор кодека/Информация : UTF-8 Plain Text
Продолжительность : 51 м. 35 с.
Битрейт : 117 бит/сек
ElementCount : 826
Размер потока : 44,2 Кбайт (0%)
Заголовок : Russian
Язык : Russian
Default : Нет
Forced : Нет

Текст #2
Идентификатор : 5
Формат : UTF-8
Идентификатор кодека : S_TEXT/UTF8
Идентификатор кодека/Информация : UTF-8 Plain Text
Продолжительность : 51 м. 21 с.
Битрейт : 71 бит/сек
ElementCount : 910
Размер потока : 26,9 Кбайт (0%)
Заголовок : English
Язык : English
Default : Нет
Forced : Нет

Текст #3
Идентификатор : 6
Формат : UTF-8
Идентификатор кодека : S_TEXT/UTF8
Идентификатор кодека/Информация : UTF-8 Plain Text
Продолжительность : 52 м. 59 с.
Битрейт : 81 бит/сек
ElementCount : 1049
Размер потока : 31,7 Кбайт (0%)
Заголовок : English (SDH)
Язык : English
Default : Нет
Forced : Нет
Раздача ведётся путём добавления новых серий; при каждом добавлении создаётся новый торрент. Чтобы начать докачку новой серии, пользователям необходимо сделать следующее:
- Остановить скачивание.
- Удалить старый торрент у себя из клиента (старые серии удалять не надо).
- Скачать новый торрент и запустить его у себя в клиенте вместо старого, при этом указать клиенту путь в старую папку куда и должно происходить скачивание новых серий.

Ваш клиент при этом должен произвести хеширование (проверку) старой папки (если не производит сам - помогите ему сделать это), и будет докачивать только те серии которых у вас ещё нет. Старые серии при этом не удаляются, а продолжают раздаваться!
Если вы уже удалили старые серии, то предотвратить повторную закачку старых серий можно, отжав галочку в соответствующих местах при запуске нового торрента. По возможности, желательно не удалять старые серии как можно дольше, чтобы релизер не столько продолжал раздавать старые серии, а смог сконцентрироваться на новых.
pb.wtf



Скачать Самый громкий голос через торрент https://a.radikal.ru/a31/1907/8a/c970e3d89d41.png Скачать фильм Самый громкий голос через торрент бесплантно в хорошем качестве Описание: В центре сюжета сериала находится известная медийная персона - Роджер Айлз, основатель американского канала Fox News, а также ... 10 10 1
Торрент: Зарегистрирован [2019-07-09 16:58] · скачан: 4 раз
Статус: √ проверено
Размер: 10.93 GB
Как cкачать? Как скачать Самый громкий голос через торрент | qTorrent

28-11-2019 20:33  

Отключить всю рекламу на сайте

09-07-2019 16:59 Самый громкий голос Скачать торрент  

2 серияpb.wtf



    Дорогой пользователь! Огромная просьба, поблагодарите релизера, оцените раздачу и оставьте свои комментарий, если Вы скачали Самый громкий голос через торрент бесплатно! Внесите свою лепту в развитие PiratBit!
    Комментировать посты могут только пользователи прошедшие не сложную регистрацию
    Показать сообщения:    

    Самый громкий голос через торрент
    Скачать бесплатно Самый громкий голос
    Самый громкий голос скачать торрент
    Самый громкий голос смотреть онлайн
    Cкачать фильм Самый громкий голос бесплатно
    Самый громкий голос скачать торрент в хорошем качестве
    Самый громкий голос смотреть онлайн бесплатно в хорошем качестве


    Вы не можете начинать темы
    Вы не можете отвечать на сообщения
    Вы не можете редактировать свои сообщения
    Вы не можете удалять свои сообщения
    Вы не можете голосовать в опросах
    Вы не можете прикреплять файлы к сообщениям
    Вы можете скачивать файлы