Всегда рабочее зеркало без VPN и Proxy просто перед .vidak.icu напиши любое слово или цифру, Пример http://4vy4.vidak.icu

MVO

Лицензия

1 сезон

1

1 сезон

iTunes

1 сезон

13

1 сезон

Deluxe

pack

Рекомендуем

Repack

30

ВАЖНО

RePack

MK11

RePack

jed

RePack

fifa19

RePack

RDR2

RePack

NEED FOR SPEED™ PAYBACK

Кинопоиск HD

6 сезон

 Острые козырьки 6 сезон

Все сериалы

все сериалы на PB.wtf

RePack

FAR CRY 5
  
Magnet ссылка

Цинциннати Кид / The Cincinnati Kid (Норман Джуисон) [1965 г., драма, криминал, BDRip 720p] MVO + AVO - KORSAR pb.wtf

Цинциннати Кид через торрент pb.wtf

Размер: 4.84 GB | Добавлен: 2 года 11 мес. назад | Торрент скачан:16 раз
Смотреть онлайн Цинциннати Кид | Скачать    Ребята, помогите собрать деньги на оплату серверов!!!

07-07-2019 14:32 Цинциннати Кид Скачать торрент  

Название: Цинциннати Кид
Оригинальное название: The Cincinnati Kid
Год выхода: 1965
Жанр: Драма, криминал
Выпущено: США, Filmways Pictures, Metro-Goldwyn-Mayer (MGM), Solar Productions
Продолжительность: 01:42:48
Перевод: Профессиональный многоголосый, авторский одноголосый
Режиссёр: Норман Джуисон
В ролях: Стив МакКуин, Эдвард Дж. Робинсон, Энн-Маргрет, Карл Молден, Тьюзди Уэлд, Джоан Блонделл, Рип Торн, Джек Уэстон, Кэб Кэллоуэй, Джефф Кори, Теодор Маркус, Милтон Селзер, Карл Свенсон, Эмиль Жене, Рон Собл, Ирен Тедроу, Мидж Уэр, Даб Тейлор

Описание: Цинциннати Кид — лучший игрок в Новом Орлеане в стад покер. Однажды от карточного дилера Шутера он узнаёт, что в город приехал знаменитый Лэнси Говард — лучший карточный игрок. Кид решает сразиться с ним, чтобы победить, ему удаётся договориться об игре, делаются ставки, и игра начинается.

rating

Качество: BDRip 720p
Видео: MPEG-4 AVC, 6125 Кбит/сек, 1272x720, 23.976 кадра/сек
Аудио 1: Russian: AC3, 2 ch, 192 Кбит/сек - MVO, Селена Интернэшнл
Аудио 2: Russian: AC3, 2 ch, 192 Кбит/сек - AVO, А. Гаврилов
Аудио 3: English: AC3, 1 ch, 224 Кбит/сек - Оригинал
Субтитры: Английские
Навигация по главам: Есть

Релиз от:
скриншот  скриншот  скриншот  скриншот  скриншот  скриншот  
• x264 [info]: frame I:846 Avg QP:16.75 size: 142684
• x264 [info]: frame P:28582 Avg QP:19.77 size: 66210
• x264 [info]: frame B:118461 Avg QP:21.66 size: 23057

===========================================

Общее
Уникальный идентификатор : 210218467412050886328992662138902149468 (0x9E269AA7F312F0468FA09259431DF95C)
Полное имя : The.Cincinnati.Kid.1965.BDRip.720p.KORSAR.mkv
Формат : Matroska
Версия формата : Version 2
Размер файла : 4,84 Гбайт
Продолжительность : 1 ч. 42 м.
Общий поток : 6735 Кбит/сек
Дата кодирования : UTC 2017-07-17 08:31:48
Программа кодирования : mkvmerge v5.8.0 ('No Sleep / Pillow') built on Sep 2 2012 15:37:04
Библиотека кодирования : libebml v1.2.3 + libmatroska v1.3.0

Видео
Идентификатор : 1
Формат : AVC
Формат/Информация : Advanced Video Codec
Профиль формата : [email protected]
Параметр CABAC формата : Да
Параметр ReFrames формата : 9 кадров
Идентификатор кодека : V_MPEG4/ISO/AVC
Продолжительность : 1 ч. 42 м.
Битрейт : 6125 Кбит/сек
Ширина : 1272 пикселя
Высота : 720 пикселей
Соотношение сторон : 16:9
Режим частоты кадров : Постоянный
Частота кадров : 23,976 (24000/1001) кадра/сек
Цветовое пространство : YUV
Субдискретизация насыщенности : 4:2:0
Битовая глубина : 8 бит
Тип развёртки : Прогрессивная
Бит/(Пиксели*Кадры) : 0.279
Размер потока : 4,30 Гбайт (89%)
Заголовок : RIP | MZMA
Библиотека кодирования : x264 core 150 r2833kMod df79067
Настройки программы : cabac=1 / ref=9 / deblock=1:-3:-3 / analyse=0x3:0x113 / me=umh / subme=11 / psy=1 / fade_compensate=0.00 / psy_rd=1.00:0.00 / mixed_ref=1 / me_range=48 / chroma_me=1 / trellis=2 / 8x8dct=1 / cqm=0 / deadzone=21,11 / fast_pskip=0 / chroma_qp_offset=-2 / threads=6 / lookahead_threads=1 / sliced_threads=0 / nr=0 / decimate=0 / interlaced=0 / bluray_compat=0 / constrained_intra=0 / bframes=16 / b_pyramid=2 / b_adapt=2 / b_bias=0 / direct=3 / weightb=1 / open_gop=0 / weightp=2 / keyint=250 / keyint_min=23 / scenecut=40 / intra_refresh=0 / rc_lookahead=60 / rc=2pass / mbtree=1 / bitrate=6125 / ratetol=1.0 / qcomp=0.60 / qpmin=0 / qpmax=69 / qpstep=4 / cplxblur=20.0 / qblur=0.5 / vbv_maxrate=50000 / vbv_bufsize=62500 / nal_hrd=none / filler=0 / ip_ratio=1.40 / aq=3:0.90
Язык : English
Default : Да
Forced : Нет
Цветовой диапазон : Limited
Основные цвета : BT.709
Характеристики трансфера : BT.709
Коэффициенты матрицы : BT.709

Аудио #1
Идентификатор : 2
Формат : AC-3
Формат/Информация : Audio Coding 3
Параметр Endianness формата : Big
Идентификатор кодека : A_AC3
Продолжительность : 1 ч. 42 м.
Вид битрейта : Постоянный
Битрейт : 192 Кбит/сек
Каналы : 2 канала
Расположение каналов : Front: L R
Частота : 48,0 КГц
Частота кадров : 31,250 кадров/сек (1536 spf)
Битовая глубина : 16 бит
Метод сжатия : С потерями
Размер потока : 141 Мбайт (3%)
Заголовок : MVO, Селена Интернэшнл
Язык : Russian
Default : Да
Forced : Нет

Аудио #2
Идентификатор : 3
Формат : AC-3
Формат/Информация : Audio Coding 3
Параметр Endianness формата : Big
Идентификатор кодека : A_AC3
Продолжительность : 1 ч. 42 м.
Вид битрейта : Постоянный
Битрейт : 192 Кбит/сек
Каналы : 2 канала
Расположение каналов : Front: L R
Частота : 48,0 КГц
Частота кадров : 31,250 кадров/сек (1536 spf)
Битовая глубина : 16 бит
Метод сжатия : С потерями
Размер потока : 141 Мбайт (3%)
Заголовок : AVO, А. Гаврилов
Язык : Russian
Default : Нет
Forced : Нет

Аудио #3
Идентификатор : 4
Формат : AC-3
Формат/Информация : Audio Coding 3
Параметр Endianness формата : Big
Идентификатор кодека : A_AC3
Продолжительность : 1 ч. 42 м.
Вид битрейта : Постоянный
Битрейт : 224 Кбит/сек
Каналы : 1 канал
Расположение каналов : Front: C
Частота : 48,0 КГц
Частота кадров : 31,250 кадров/сек (1536 spf)
Битовая глубина : 16 бит
Метод сжатия : С потерями
Размер потока : 165 Мбайт (3%)
Заголовок : Original
Язык : English
Default : Нет
Forced : Нет

Текст
Идентификатор : 5
Формат : UTF-8
Идентификатор кодека : S_TEXT/UTF8
Идентификатор кодека/Информация : UTF-8 Plain Text
Язык : English
Default : Нет
Forced : Нет

Меню
00:00:00.000 : en:00:00:00.000
00:03:43.682 : en:00:03:43.682
00:08:21.376 : en:00:08:21.376
00:13:56.044 : en:00:13:56.044
00:17:29.257 : en:00:17:29.257
00:21:38.881 : en:00:21:38.881
00:23:37.958 : en:00:23:37.958
00:28:28.457 : en:00:28:28.457
00:32:26.903 : en:00:32:26.903
00:36:04.746 : en:00:36:04.746
00:41:45.002 : en:00:41:45.002
00:44:53.774 : en:00:44:53.774
00:48:18.562 : en:00:48:18.562
00:52:20.721 : en:00:52:20.721
00:56:23.839 : en:00:56:23.839
00:59:19.890 : en:00:59:19.890
01:05:32.220 : en:01:05:32.220
01:12:04.529 : en:01:12:04.529
01:15:23.352 : en:01:15:23.352
01:19:25.552 : en:01:19:25.552
01:24:23.016 : en:01:24:23.016
01:27:22.946 : en:01:27:22.946
01:31:45.250 : en:01:31:45.250
01:36:56.936 : en:01:36:56.936
01:39:52.361 : en:01:39:52.361
01:41:37.091 : en:01:41:37.091
pb.wtf



Скачать Цинциннати Кид через торрент https://i1.imageban.ru/out/2019/01/26/3fe53e6bee71add1c37a2a1bbf27c45a.png Скачать, смотреть онлайн Цинциннати Кид бесплантно в хорошем качестве Описание: Цинциннати Кид — лучший игрок в Новом Орлеане в стад покер. Однажды от карточного дилера Шутера он узнаёт, что в город приехал ... 10 10 1
Info! Золотая раздача, скачанное не засчитывается.
Торрент: Зарегистрирован [2019-07-07 14:32] · скачан: 16 раз
Статус: √ проверено
Размер: 4.84 GB
Как cкачать? Как скачать Цинциннати Кид через торрент | UTorrent

28-11-2019 20:33  

Отключить всю рекламу на сайте

    Дорогой пользователь! Огромная просьба, поблагодарите релизера, оцените раздачу и оставьте свои комментарий, если Вы скачали Цинциннати Кид через торрент бесплатно!
    Комментировать посты могут только пользователи прошедшие не сложную регистрацию
    Показать сообщения:    

    Цинциннати Кид через торрент
    Скачать бесплатно Цинциннати Кид
    Цинциннати Кид скачать торрент
    Цинциннати Кид смотреть онлайн
    Cкачать фильм Цинциннати Кид бесплатно
    Цинциннати Кид скачать торрент в хорошем качестве
    Цинциннати Кид смотреть онлайн бесплатно в хорошем качестве


    Вы не можете начинать темы
    Вы не можете отвечать на сообщения
    Вы не можете редактировать свои сообщения
    Вы не можете удалять свои сообщения
    Вы не можете голосовать в опросах
    Вы не можете прикреплять файлы к сообщениям
    Вы можете скачивать файлы