Ссылка на приватное зеркало всего за 1$. Внимание количество ограничено!!!

OK

1+1

iTunes

мы

OK

1

WEB-DLRip

Джокер

Пифагор

Ведьмак / The Witcher сериал

Лицензия

ПШазам

ОК

Оно 2

iTunes

30
pack

Вам бонус

ВАЖНО

!!Акция!!

Alien_RageХит недели

RePack

Resident Evil 21

ИГРА 18+

pack

RePack

jed

RePack

fifa19

RePack

Assassins Creed: Odyssey

RePack

NEED FOR SPEED™ PAYBACK

4 сезон

9 сезон

Бесстыжие 9 сезон

Все сериалы

все сериалы на PB.wtf

RePack

FAR CRY 5
  

Запретная Зона 3D / Bunker of the Dead (Маттиас Олоф Ейх) [2015, ужасы, боевик, комедия, BDRip 1080p] [Half OverUnder / Вертикальная анаморфная стереопара] DUB [Line] pb.wtf

Запретная Зона 3D через торрент pb.wtf

Размер: 6.89 GB | Добавлен: 6 мес. назад | Торрент скачан:15 раз
Скачать  

07-07-2019 20:47 Запретная Зона 3D Скачать торрент  

Запретная Зона 3D
Bunker of the Dead
«А зомби здесь тихие»
Год выпуска: 2015
Страна: Германия
Жанр: ужасы, боевик, комедия
Продолжительность: 01:16:29
Перевод: Дублированный | Line
Субтитры: отсутствуют

Режиссер: Маттиас Олоф Ейх

rating


В ролях: Патрик Янс / Иван Чабан (Markus G. Elser), Эстер Маас (Sgt. Debby O'Neil), Ациель Мартинес Пол (Thomas Williamson), Кристофер Ли Медоуз / Иван Семёнов (Lt. Taylor), Хуан Карлос Лопез / Игорь Титов (Cpt. Walker), Сарита Брэдли / Виктория Слуцкая (Sandra Williamson), Кристиан Джангуирт / Иван Семёнов (General Buster)

Описание: Двое друзей Пол и Маркус находят в одном из старых дневников описание расположения секретного подземного бункера времен Второй мировой войны. Вооружившись специальным 3D девайсом, передающим изображение «от первого лица» один из них отправляется на место, а второй помогает на расстоянии, отслеживая его перемещения и давая правильные советы.
Вход в бункер находится на территории американской военной базы. С опасными приключениями Пол проникает в подземелье. Правда он еще не знает, что его визит не остался незамеченным. И речь идет не только о военных, теперь за ним следит нечто мрачное и зловещее, находившееся в заточении более 70 лет…

Качество: BDRip 1080p
Формат: MKV

Видео: AVC / 1920х1080p / 23,976 fps / 12.0 Mbps
Аудио#1: Русский / AC3 / 48 KHz / 2.0 ch / 256 Kbps (Дубляж - Line) (стерео)
Аудио#2: Английский / AC3 / 48 KHz / 5.1 ch / 640 Kbps (Original - BD 3D Ger)
Формат 3D: Half OverUnder / Вертикальная анаморфная стереопара
Порядок ракурсов: левый ракурс первый
скриншот  скриншот  скриншот  скриншот  скриншот  

General
Unique ID : 172534390270670136693379150117679255716 (0x81CCEA34A69C0FDFAF1EB719E585D0A4)
Complete name : J:BunkerOfTheDead(2015)3D-halfOU(Ash61)Line.mkv
Format : Matroska
Format version : Version 2
File size : 6.89 GiB
Duration : 1h 16mn
Overall bit rate : 12.9 Mbps
Movie name : Запретная Зона 3D / Bunker of the Dead (2015) in 3D
Encoded date : UTC 2019-03-16 11:47:37
Writing application : mkvmerge v5.8.0 ('No Sleep / Pillow') built on Sep 2 2012 15:37:04
Writing library : libebml v1.2.3 + libmatroska v1.3.0

Video
ID : 1
Format : AVC
Format/Info : Advanced Video Codec
Format profile : High@L4.1
Format settings, CABAC : Yes
Format settings, ReFrames : 4 frames
Codec ID : V_MPEG4/ISO/AVC
Duration : 1h 16mn
Bit rate : 12.0 Mbps
Width : 1 920 pixels
Height : 1 080 pixels
Display aspect ratio : 16:9
Frame rate mode : Constant
Frame rate : 23.976 (24000/1001) fps
Color space : YUV
Chroma subsampling : 4:2:0
Bit depth : 8 bits
Scan type : Progressive
Bits/(Pixel*Frame) : 0.241
Stream size : 6.27 GiB (91%)
Title : BDRip by Ash61
Writing library : x264 core 146 r2538 121396c
Encoding settings : cabac=1 / ref=4 / deblock=1:-3:-3 / analyse=0x3:0x113 / me=umh / subme=10 / psy=1 / psy_rd=1.00:0.00 / mixed_ref=1 / me_range=32 / chroma_me=1 / trellis=2 / 8x8dct=1 / cqm=0 / deadzone=21,11 / fast_pskip=0 / chroma_qp_offset=-2 / threads=12 / lookahead_threads=3 / sliced_threads=0 / nr=0 / decimate=0 / interlaced=0 / bluray_compat=0 / constrained_intra=0 / bframes=10 / b_pyramid=2 / b_adapt=2 / b_bias=0 / direct=3 / weightb=1 / open_gop=0 / weightp=2 / keyint=250 / keyint_min=23 / scenecut=40 / intra_refresh=0 / rc_lookahead=60 / rc=2pass / mbtree=0 / bitrate=12000 / ratetol=1.0 / qcomp=0.70 / qpmin=0 / qpmax=69 / qpstep=4 / cplxblur=20.0 / qblur=0.5 / vbv_maxrate=40000 / vbv_bufsize=30000 / nal_hrd=none / filler=0 / frame-packing=4 / ip_ratio=1.40 / pb_ratio=1.30 / aq=1:0.70
Language : German
Default : Yes
Forced : No

Audio #1
ID : 2
Format : AC-3
Format/Info : Audio Coding 3
Mode extension : CM (complete main)
Format settings, Endianness : Big
Codec ID : A_AC3
Duration : 1h 16mn
Bit rate mode : Constant
Bit rate : 256 Kbps
Channel(s) : 2 channels
Channel positions : Front: L R
Sampling rate : 48.0 KHz
Frame rate : 31.250 fps (1536 spf)
Compression mode : Lossy
Stream size : 140 MiB (2%)
Title : Дубляж - Line
Language : Russian
Default : Yes
Forced : No

Audio #2
ID : 3
Format : AC-3
Format/Info : Audio Coding 3
Mode extension : CM (complete main)
Format settings, Endianness : Big
Codec ID : A_AC3
Duration : 1h 16mn
Bit rate mode : Constant
Bit rate : 640 Kbps
Channel(s) : 6 channels
Channel positions : Front: L C R, Side: L R, LFE
Sampling rate : 48.0 KHz
Frame rate : 31.250 fps (1536 spf)
Compression mode : Lossy
Stream size : 350 MiB (5%)
Language : English
Default : No
Forced : No

Menu
00:00:00.000 : :1
00:06:32.142 : :2
00:11:55.715 : :3
00:15:45.319 : :4
00:28:12.774 : :5
00:32:47.841 : :6
00:39:22.944 : :7
00:47:14.206 : :8
00:53:58.735 : :9
00:59:28.273 : :10
01:05:24.587 : :11
01:09:44.055 : :12

pb.wtf



Скачать Запретная Зона 3D через торрент https://b.radikal.ru/b01/1907/bd/c5857dc98032.png Скачать фильм Запретная Зона 3D через торрент бесплантно в хорошем качестве Описание: Двое друзей Пол и Маркус находят в одном из старых дневников описание расположения секретного подземного бункера времен Второй ... 10 10 2
Торрент: Зарегистрирован [2019-07-07 20:47] · скачан: 15 раз
Статус: T временная
Размер: 6.89 GB
Как cкачать? Как скачать Запретная Зона 3D через торрент | qTorrent

% Раздел Тема Автор DL S | L
3D Фильмы [ 9.87 GB ] Запретная Зона 3D в 3Д / Bunker of the Dead 3D [2015 BDRip 1080p] OverUnder / Вертикальная стереопара serega768 Скачать
1 | 0
T Фильмы [HD 720p, 1080p] (Хороший звук DUB, MVO) [ 4.17 GB ] Запретная Зона 3D / Bunker of the Dead [2015 BDRip 720p] Dub [Чистый звук] $-DRON-$ Скачать
1 | 0
T Фильмы 2015 [DVDrip, WEB-DLRip, HDrip] [ 1.37 GB ] Запретная Зона 3D / Bunker of the Dead [2015 HDRip ] DUB [Чистый звук] $-DRON-$ Скачать
1 | 0

28-11-2019 20:33  

Отключить всю рекламу на сайте

    Дорогой пользователь! Огромная просьба, поблагодарите релизера, оцените раздачу и оставьте свои комментарий, если Вы скачали Запретная Зона 3D через торрент бесплатно! Внесите свою лепту в развитие PiratBit!
    Комментировать посты могут только пользователи прошедшие не сложную регистрацию
    Показать сообщения:    

    Запретная Зона 3D через торрент
    Скачать бесплатно Запретная Зона 3D
    Запретная Зона 3D скачать торрент
    Запретная Зона 3D смотреть онлайн
    Cкачать фильм Запретная Зона 3D бесплатно
    Запретная Зона 3D скачать торрент в хорошем качестве
    Запретная Зона 3D смотреть онлайн бесплатно в хорошем качестве


    Вы не можете начинать темы
    Вы не можете отвечать на сообщения
    Вы не можете редактировать свои сообщения
    Вы не можете удалять свои сообщения
    Вы не можете голосовать в опросах
    Вы не можете прикреплять файлы к сообщениям
    Вы можете скачивать файлы