Ссылка на приватное зеркало нашего сайта всего за 1$. Внимание количество ограничено!!!

2 сезон

iTunes

1 сезон

1

iTunes

iTunes

iTunes

1 сезон

RePack

30

ИГРА 18+

pack

ВАЖНО

!!Акция!!

Alien_RageХит недели

RePack

MK11
pack

Забери бонус

RePack

jed

!!Акция!!

Alien_Rage

RePack

fifa19

RePack

Assassins Creed: Odyssey

RePack

NEED FOR SPEED™ PAYBACK

4 сезон

9 сезон

Бесстыжие 9 сезон

Все сериалы

все сериалы на PB.wtf

RePack

FAR CRY 5
  

Место встречи изменить нельзя / Серии: 1-5 из 5 (Станислав Говорухин) [1979, Приключения, криминал, детектив, HDTV 1080i] pb.wtf

Место встречи изменить нельзя через торрент pb.wtf

Размер: 31.23 GB | Добавлен: 1 год 3 мес. назад | Торрент скачан:14 раз
Скачать  

07-07-2019 21:44 Место встречи изменить нельзя Скачать торрент  

Место встречи изменить нельзя Год выпуска: 1979
Страна: СССР
Жанр: Приключения, криминал, детектив
Продолжительность: ~ 01:00:00
Перевод: Не требуется
Субтитры: отсутствуют

Режиссер: Станислав Говорухин

rating

В ролях: Владимир Высоцкий, Владимир Конкин, Сергей Юрский, Виктор Павлов, Наталья Фатеева, Леонид Куравлёв, Светлана Светличная, Александр Белявский, Евгений Евстигнеев, Армен Джигарханян, Лариса Удовиченко, Станислав Садальский, Валерия Заклунная, Зиновий Гердт, Евгений Леонов-Гладышев

Описание: Лето 1945 года. Отгремел салют Великой Победы и страна постепенно возвращается к мирной жизни. Послевоенная Москва только начинает приходить в себя, но преступники уже вовсю развернули свою бурную деятельность. В городе появляется неуловимая банда «Черная кошка», наводя ужас на москвичей. Недавно демобилизовавшийся молодой командир офицер Володя Шарапов, придя по распределению в МУР, приступает к работе в отделе по борьбе с бандитизмом. Начальник отдела капитан Глеб и Шарапов вступают в схватку с бандитами. Первое дело Шарапова – убийство Ларисы Груздевой, но за ними последует череда других дерзких преступлений.

Качество: HDTV 1080i
Формат: MKV

Видео: MPEG4 Video (H264) 1920x1080 25fps ~13.000 kbps
Аудио: MPEG2 Audio 48000Hz stereo 192kbps
скриншот  скриншот  скриншот  скриншот  

General
Complete name : Место встречи изменить нельзя (1979) HDTV 1080i - 02 серия.mkv
Format : Matroska
Format version : Version 4 / Version 2
File size : 6.64 GiB
Duration : 1 h 10 min
Overall bit rate : 13.4 Mb/s
Writing application : VideoReDo (Lavf57.71.100)
Writing library : VideoReDo (Lavf57.71.100)
ErrorDetectionType : Per level 1

Video
ID : 1
Format : AVC
Format/Info : Advanced Video Codec
Format profile : High@L4
Format settings : CABAC / 4 Ref Frames
Format settings, CABAC : Yes
Format settings, ReFrames : 4 frames
Codec ID : V_MPEG4/ISO/AVC
Duration : 1 h 10 min
Bit rate : 13.0 Mb/s
Width : 1 920 pixels
Height : 1 080 pixels
Display aspect ratio : 16:9
Frame rate mode : Constant
Frame rate : 25.000 FPS
Standard : Component
Color space : YUV
Chroma subsampling : 4:2:0
Bit depth : 8 bits
Scan type : Interlaced
Scan type, store method : Separated fields
Scan order : Top Field First
Bits/(Pixel*Frame) : 0.250
Stream size : 6.41 GiB (97%)
Default : No
Forced : No
Color range : Limited
Color primaries : BT.709
Transfer characteristics : BT.709
Matrix coefficients : BT.709

Audio
ID : 2
Format : MPEG Audio
Format version : Version 1
Format profile : Layer 2
Codec ID : A_MPEG/L2
Codec ID/Hint : MP2
Duration : 1 h 10 min
Bit rate mode : Constant
Bit rate : 192 kb/s
Channel(s) : 2 channels
Sampling rate : 48.0 kHz
Compression mode : Lossy
Stream size : 97.1 MiB (1%)
Language : Russian
Default : Yes
Forced : No

pb.wtf



Скачать Место встречи изменить нельзя через торрент http://i4.imageban.ru/out/2018/01/14/5812325c59d9c7849032767c22eceb94.jpg Скачать фильм Место встречи изменить нельзя через торрент бесплантно в хорошем качестве Описание: Лето 1945 года. Отгремел салют Великой Победы и страна постепенно возвращается к мирной жизни. Послевоенная Москва только ... 9.6 10 5
Info! Золотая раздача, скачанное не засчитывается.
Торрент: Зарегистрирован [2019-07-07 21:44] · скачан: 14 раз
Статус: √ проверено
Размер: 31.23 GB
Как cкачать? Как скачать Место встречи изменить нельзя через торрент | qTorrent

% Раздел Тема Автор DL S | L
Кино СССР [ 16.7 GB ] Место встречи изменить нельзя / Серии 1-5 из 5 [1979 HDTVRip 720p от KORSAR] filbi1976 Скачать
2 | 0
Наши сериалы [ 6.55 GB ] Место встречи изменить нельзя [1979 BDRip-AVC] Оригинал Бумер Скачать
1 | 0
Наши сериалы [ 7.2 GB ] Место встречи изменить нельзя [1979 DVDRip-AVC Оригинал] Бумер Скачать
1 | 0
Наши сериалы [ 5.7 GB ] Место встречи изменить нельзя / / [1979 BDRip] Оригинал wekotila Скачать
2 | 0

28-11-2019 20:33  

Отключить всю рекламу на сайте

    Дорогой пользователь! Огромная просьба, поблагодарите релизера, оцените раздачу и оставьте свои комментарий, если Вы скачали Место встречи изменить нельзя через торрент бесплатно! Внесите свою лепту в развитие PiratBit!
    Комментировать посты могут только пользователи прошедшие не сложную регистрацию
    Показать сообщения:    

    Место встречи изменить нельзя через торрент
    Скачать бесплатно Место встречи изменить нельзя
    Место встречи изменить нельзя скачать торрент
    Место встречи изменить нельзя смотреть онлайн
    Cкачать фильм Место встречи изменить нельзя бесплатно
    Место встречи изменить нельзя скачать торрент в хорошем качестве
    Место встречи изменить нельзя смотреть онлайн бесплатно в хорошем качестве


    Вы не можете начинать темы
    Вы не можете отвечать на сообщения
    Вы не можете редактировать свои сообщения
    Вы не можете удалять свои сообщения
    Вы не можете голосовать в опросах
    Вы не можете прикреплять файлы к сообщениям
    Вы можете скачивать файлы