новый адрес пиратбит piratbit
Мега распродажа FORZA HORIZON 4 ULTIMATE+ВСЕ DLC+ОНЛАЙН всего за 499р. 349 руб. (супер цена). Внимание количество ограничено!!!

iTunes

1+1

iTunes

мы

iTunes

1

iTunes

Чернобыль

iTunes

Ральф против интернета

Лицензия

ПШазам

Лицензия

Игра престолов

Лицензия

30
pack

ВАЖНО

!!Акция!!

Alien_RageХит недели

RePack

Resident Evil 21

ИГРА 18+

pack

RePack

Metro:Exodus

!!Акция!!

Alien_Rage

RePack

fifa19

RePack

Assassins Creed: Odyssey

RePack

NEED FOR SPEED™ PAYBACK

3 сезон

9 сезон

Бесстыжие 9 сезон

Все сериалы

все сериалы на PB.wtf

RePack

FAR CRY 5
Ребята, катастрофически не хватает 1900р. для оплаты серверов за Октябрь (всвязи с блокировками трафик упал в 3 раза), 1-2р., выручайте.
  

ЛЕГО Фильм 2 / The Lego Movie 2: The Second Part (Майк Митчелл) [2019, мультфильм, мюзикл, фэнтези, BDRip 1080p, 60 fps] DUB (rus, ukr) [iTunes] pb.wtf

ЛЕГО Фильм 2 через торрент pb.wtf

Раздают: 2 [ 0 KB/s ]
Размер: 10.62 GB | Добавлен: 4 мес. 9 д. назад | Торрент скачан:56 раз
Скачать  

08-07-2019 01:43 ЛЕГО Фильм 2 Скачать торрент  

ЛЕГО Фильм 2 / The Lego Movie 2: The Second Part«Они придут с миром»

Год выпуска: 2019
Страна: Дания, Норвегия, Австралия, США
Жанр: мультфильм, мюзикл, фэнтези, боевик, комедия, приключения, семейный
Продолжительность: 01:47:09
Перевод: Дублированный | iTunes
Субтитры: Русские, украинские, английские
Режиссер: Майк Митчелл
В ролях:

Крис Пратт (Emmet Brickowski / Rex Dangervest, озвучка), Элизабет Бэнкс (Wyldstyle / Lucy, озвучка), Уилл Арнетт (Batman, озвучка), Тиффани Хэддиш (Queen Watevra Wa'Nabi, озвучка), Стефани Беатриз (General Mayhem / Sweet Mayhem, озвучка), Элисон Бри (Unikitty / Ultrakatty, озвучка), Ник Офферман (MetalBeard, озвучка), Чарли Дэй (Benny, озвучка), Майя Рудольф (Mom), Уилл Феррелл (President Business / Dad), Джэдон Сэнд (Finn, озвучка), Бруклин Принс (Bianca, озвучка)
Описание:
Прошло пять лет с тех пор, как все было прекрасно, и теперь жители пластмассового мира столкнулись с новой невероятной угрозой - вторженцами LEGO DUPLO
Рейтинг:

MPAA: PG - Рекомендуется присутствие родителей
Качество: BDRip 1080p
Формат: MKV
Видео: H.264/AVC | 1920 x 800 | 59.940 fps | 13.0 Мбит/сек
Аудио #1: AC-3 | 5.1 | 48 kHz | 640 Кбит/сек | 16 bit | Дубляж (iTunes) | RUS |
Аудио #2: AC-3 | 2.0 | 48 kHz | 160 Кбит/сек | 16 bit | Дубляж (iTunes) | UKR |
Аудио #3: AC-3 | 5.1 | 48 kHz | 640 Кбит/сек | 16 bit | Оригинал | ENG
Навигация по главам: есть

General
Unique ID : 72423470010352325951757837538624659248 (0x367C40C1C92B1108EB4272064CC9DF30)
Complete name : D:\2019 ЛЕГО Фильм 2 BDRip 1080p 60 fps.mkv
Format : Matroska
Format version : Version 4 / Version 2
File size : 10.6 GiB
Duration : 1h 47mn
Overall bit rate : 14.2 Mbps
Movie name : ЛЕГО Фильм 2 / The Lego Movie 2 The Second Part 2
Encoded date : UTC 2019-04-29 20:06:47
Writing application : mkvmerge v22.0.0 ('At The End Of The World') 64-bit
Writing library : libebml v1.3.5 + libmatroska v1.4.8
DURATION : 01:46:17.937000000
NUMBER_OF_FRAMES : 2152
NUMBER_OF_BYTES : 71916
_STATISTICS_WRITING_APP : mkvmerge v22.0.0 ('At The End Of The World') 64-bit
_STATISTICS_WRITING_DATE_UTC : 2019-04-29 20:06:47
_STATISTICS_TAGS : BPS DURATION NUMBER_OF_FRAMES NUMBER_OF_BYTES
Video #1
ID : 1
Format : AVC
Format/Info : Advanced Video Codec
Format profile : High@L4.1
Format settings, CABAC : Yes
Format settings, ReFrames : 5 frames
Codec ID : V_MPEG4/ISO/AVC
Duration : 1h 47mn
Bit rate : 13.0 Mbps
Width : 1 920 pixels
Height : 800 pixels
Display aspect ratio : 2.40:1
Frame rate : 59.940 fps
Color space : YUV
Chroma subsampling : 4:2:0
Bit depth : 8 bits
Scan type : Progressive
Bits/(Pixel*Frame) : 0.141
Stream size : 9.52 GiB (90%)
Writing library : x264 core 146 r2538 121396c
Encoding settings : cabac=1 / ref=5 / deblock=1:-2:-2 / analyse=0x3:0x113 / me=umh / subme=9 / psy=1 / psy_rd=1.00:0.25 / mixed_ref=1 / me_range=32 / chroma_me=1 / trellis=2 / 8x8dct=1 / cqm=0 / deadzone=6,6 / fast_pskip=1 / chroma_qp_offset=-4 / threads=12 / lookahead_threads=2 / sliced_threads=0 / nr=0 / decimate=0 / interlaced=0 / bluray_compat=0 / constrained_intra=0 / bframes=3 / b_pyramid=2 / b_adapt=2 / b_bias=0 / direct=3 / weightb=1 / open_gop=0 / weightp=2 / keyint=600 / keyint_min=60 / scenecut=40 / intra_refresh=0 / rc_lookahead=60 / rc=2pass / mbtree=1 / bitrate=13000 / ratetol=1.0 / qcomp=0.80 / qpmin=0 / qpmax=69 / qpstep=4 / cplxblur=20.0 / qblur=0.5 / vbv_maxrate=50000 / vbv_bufsize=50000 / nal_hrd=none / filler=0 / ip_ratio=1.10 / aq=1:0.50
Language : English
Default : Yes
Forced : No
DURATION : 01:47:09.390000000
NUMBER_OF_FRAMES : 385378
NUMBER_OF_BYTES : 10447263079
_STATISTICS_WRITING_APP : mkvmerge v22.0.0 ('At The End Of The World') 64-bit
_STATISTICS_WRITING_DATE_UTC : 2019-04-29 20:06:47
_STATISTICS_TAGS : BPS DURATION NUMBER_OF_FRAMES NUMBER_OF_BYTES
Audio #2
ID : 2
Format : AC-3
Format/Info : Audio Coding 3
Mode extension : CM (complete main)
Format settings, Endianness : Big
Codec ID : A_AC3
Duration : 1h 47mn
Bit rate mode : Constant
Bit rate : 384 Kbps
Channel(s) : 6 channels
Channel positions : Front: L C R, Side: L R, LFE
Sampling rate : 48.0 KHz
Bit depth : 16 bits
Compression mode : Lossy
Stream size : 294 MiB (3%)
Title : iTunes
Language : Russian
Default : Yes
Forced : Yes
Audio #3
ID : 3
Format : AC-3
Format/Info : Audio Coding 3
Mode extension : CM (complete main)
Format settings, Endianness : Big
Codec ID : A_AC3
Duration : 1h 47mn
Bit rate mode : Constant
Bit rate : 160 Kbps
Channel(s) : 2 channels
Channel positions : Front: L R
Sampling rate : 48.0 KHz
Bit depth : 16 bits
Compression mode : Lossy
Stream size : 123 MiB (1%)
Title : iTunes
Language : Ukrainian
Default : No
Forced : No
Audio #4
ID : 4
Format : AC-3
Format/Info : Audio Coding 3
Mode extension : CM (complete main)
Format settings, Endianness : Big
Codec ID : A_AC3
Duration : 1h 47mn
Bit rate mode : Constant
Bit rate : 640 Kbps
Channel(s) : 6 channels
Channel positions : Front: L C R, Side: L R, LFE
Sampling rate : 48.0 KHz
Bit depth : 16 bits
Compression mode : Lossy
Stream size : 491 MiB (5%)
Title : Original
Language : English
Default : No
Forced : No
Text #5
ID : 5
Format : UTF-8
Codec ID : S_TEXT/UTF8
Codec ID/Info : UTF-8 Plain Text
Title : Forced
Language : Russian
Default : Yes
Forced : Yes
Text #6
ID : 6
Format : UTF-8
Codec ID : S_TEXT/UTF8
Codec ID/Info : UTF-8 Plain Text
Title : Full
Language : Russian
Default : No
Forced : No
Text #7
ID : 7
Format : UTF-8
Codec ID : S_TEXT/UTF8
Codec ID/Info : UTF-8 Plain Text
Title : Forced
Language : Ukrainian
Default : No
Forced : No
Text #8
ID : 8
Format : UTF-8
Codec ID : S_TEXT/UTF8
Codec ID/Info : UTF-8 Plain Text
Title : Full
Language : English
Default : No
Forced : No
Menu
00:00:00.000 : en:1
00:04:14.000 : en:2
00:12:34.000 : en:3
00:15:08.000 : en:4
00:21:56.000 : en:5
00:29:49.000 : en:6
00:36:21.000 : en:7
00:44:46.000 : en:8
00:50:49.000 : en:9
00:57:04.000 : en:10
01:01:06.000 : en:11
01:09:47.000 : en:12
01:17:30.000 : en:13
01:21:57.000 : en:14
01:26:48.000 : en:15
01:34:00.000 : en:16
01:38:28.000 : en:17
pb.wtf



Скачать ЛЕГО Фильм 2 через торрент https://b.radikal.ru/b02/1907/c4/ddeb87fe0ab4.png Скачать фильм ЛЕГО Фильм 2 через торрент бесплантно в хорошем качестве Описание: Прошло пять лет с тех пор, как все было прекрасно, и теперь жители пластмассового мира столкнулись с новой невероятной угрозой - ... 10 10 5
Info! Золотая раздача, скачанное не засчитывается.
Торрент: Зарегистрирован [2019-07-08 01:43] · скачан: 56 раз
Статус: √ проверено
Размер: 10.62 GB
Как cкачать? Как скачать ЛЕГО Фильм 2 через торрент | qTorrent

% Раздел Тема Автор DL S | L
Зарубежные Мультфильмы (BDRip 1080p, 720p, Blu-ray, BD-Remux) [ 5.63 GB ] ЛЕГО Фильм-2 / The Lego Movie 2: The Second Part [2019 мультфильм мюзикл BDRip 720p] DUB [] bober100 Скачать
3 | 0
Ultra HD (UHD: 2K, 4K, 8K) [ 44.55 GB ] ЛЕГО Фильм 2 / The Lego Movie 2: The Second Part [2019 мультфильм мюзикл UHD BDRemux 2160p] DUB [] sheker187 Скачать
1 | 0
Ultra HD (UHD: 2K, 4K, 8K) [ 13.49 GB ] ЛЕГО Фильм 2 / The Lego Movie 2: The Second Part [2019 мультфильм мюзикл UHD BDRip 2160p] [SDR] DUB [] sheker187 Скачать
1 | 0
Зарубежные Мультфильмы (BDRip 1080p, 720p, Blu-ray, BD-Remux) [ 10.27 GB ] ЛЕГО Фильм-2 / The Lego Movie 2: The Second Part [2019 мультфильм мюзикл BDRip 1080p] DUB [] bober100 Скачать
3 | 0
3D Мультфильмы [ 6.95 GB ] ЛЕГО Фильм-2 3Д / The Lego Movie 2: The Second Part 3D [2019 мультфильм мюзикл BDRip 1080p] [Half OverUnder] DUB [] bober100 Скачать
1 | 0
Зарубежные Мультфильмы (BDRip 1080p, 720p, Blu-ray, BD-Remux) [ 44.97 GB ] ЛЕГО Фильм-2 / The Lego Movie 2: The Second Part [2019 мультфильм мюзикл Blu-ray EUR 1080p] DUB [] bober100 Скачать
1 | 0
Иностранные мультфильмы [ 1.67 GB ] ЛЕГО Фильм-2 / The Lego Movie 2: The Second Part [2019 мультфильм мюзикл BDRip-AVC] DUB [] bober100 Скачать
2 | 0


>> Регистрируемся здесь <<






Отзывы и комментарии о схеме читаем и пишем здесь: ---> Отзывы и комментарии о схеме

Новые благодарочки в телеграм довольных пользователей:
скриншот   скриншот   скриншот   скриншот   скриншот
    Дорогой пользователь! Огромная просьба, поблагодарите релизера, оцените раздачу и оставьте свои комментарий, если Вы скачали ЛЕГО Фильм 2 через торрент бесплатно! Внесите свою лепту в развитие PiratBit!
    Комментировать посты могут только пользователи прошедшие не сложную регистрацию
    Показать сообщения:    

    ЛЕГО Фильм 2 через торрент
    Скачать бесплатно ЛЕГО Фильм 2
    ЛЕГО Фильм 2 скачать торрент
    ЛЕГО Фильм 2 смотреть онлайн
    Cкачать фильм ЛЕГО Фильм 2 бесплатно
    ЛЕГО Фильм 2 скачать торрент в хорошем качестве
    ЛЕГО Фильм 2 смотреть онлайн бесплатно в хорошем качестве


    Вы не можете начинать темы
    Вы не можете отвечать на сообщения
    Вы не можете редактировать свои сообщения
    Вы не можете удалять свои сообщения
    Вы не можете голосовать в опросах
    Вы не можете прикреплять файлы к сообщениям
    Вы можете скачивать файлы