2 сезон

iTunes

1 сезон

1

iTunes

iTunes

iTunes

1 сезон

RePack

30

ИГРА 18+

pack

ВАЖНО

!!Акция!!

Alien_RageХит недели

RePack

MK11
pack

Забери бонус

RePack

jed

!!Акция!!

Alien_Rage

RePack

fifa19

RePack

Assassins Creed: Odyssey

RePack

NEED FOR SPEED™ PAYBACK

4 сезон

9 сезон

Бесстыжие 9 сезон

Все сериалы

все сериалы на PB.wtf

RePack

FAR CRY 5
  

Ведьма / Сезон: 1 / Серии: 1-16 из 16 (Сергей Борчуков) [2019, Мелодрама, HDTV 1080p] pb.wtf

Ведьма через торрент pb.wtf

Размер: 40.64 GB | Добавлен: 1 год 3 мес. назад | Торрент скачан:17 раз
Скачать  

08-07-2019 02:20 Ведьма Скачать торрент  

Ведьма
Год выпуска: 2019
Страна: Россия
Жанр: Мелодрама
Продолжительность: ~ 00:52:00
Субтитры: отсутствуют

Режиссер: Сергей Борчуков



В ролях:

Анастасия Стежко, Илья Акинтьев, Глафира Тарханова, Митя Лабуш, Елена Дробышева, Борис Смолкин, Андрей Барило, Валерий Афанасьев, Ольга Гришина, Мария Тарасова (II)

Описание:

Невероятные события происходят в глухой деревне. Один тревожный день меняет судьбы всех её жителей. Все началось с появления таинственной незнакомки. Кузнец Роман спасает тонущую в реке девушку. Девушка не помнит ничего о себе и своем прошлом. Кто она? Русалка, призрак, прекрасный ангел или может быть… ведьма? По деревне начинают распространяться слухи о том, что в доме Романа завелась нечистая сила.

Релиз от:

Качество: HDTV 1080p
Формат: MKV

Видео: 1920x1080, (16:9), 25 fps, AVC MPEG-4 (x264), High@L4.1 ~ 7051 kbps , 0.136 bit/pixel
Аудио: 48 kHz, АС3, 2/0 (L,R), ~192.00 kbps avg
скриншот  скриншот  скриншот  скриншот  скриншот  

General
Unique ID : 237582460942430357504010714117597010819 (0xB2BCB7B3424750DBBA13E9C905739B83)
Complete name : E:Запись с твAngelina 2018 HDTV 1080p.R.G.GeneralfilmAngelina.s01.e01.2018.HDTV 1080p.by.White Smoke.R.G.Generalfilm.mkv
Format : Matroska
Format version : Version 4 / Version 2
File size : 2.88 GiB
Duration : 56 min 53 s
Overall bit rate mode : Constant
Overall bit rate : 7 239 kb/s
Movie name : Angelina.s01.e01.2018.HDTV 1080p.by.White Smoke.R.G.Generalfilm.mkv
Encoded date : UTC 2019-06-04 14:46:05
Writing application : mkvmerge v6.8.0 (''Theme for Great Cities'') 64bit built on Mar 2 2014 21:34:26
Writing library : libebml v1.3.0 + libmatroska v1.4.1
Cover : Yes
Attachments : cover.jpg

Video
ID : 1
Format : AVC
Format/Info : Advanced Video Codec
Format profile : High@L4.1
Format settings : CABAC / 3 Ref Frames
Format settings, CABAC : Yes
Format settings, ReFrames : 3 frames
Codec ID : V_MPEG4/ISO/AVC
Duration : 56 min 53 s
Bit rate mode : Constant
Bit rate : 7 051 kb/s
Width : 1 920 pixels
Height : 1 080 pixels
Display aspect ratio : 16:9
Frame rate mode : Constant
Frame rate : 25.000 FPS
Standard : PAL
Color space : YUV
Chroma subsampling : 4:2:0
Bit depth : 8 bits
Scan type : Progressive
Bits/(Pixel*Frame) : 0.136
Stream size : 2.74 GiB (95%)
Default : Yes
Forced : No
Color range : Limited
Color primaries : BT.709
Transfer characteristics : BT.709
Matrix coefficients : BT.709

Audio
ID : 2
Format : AC-3
Format/Info : Audio Coding 3
Commercial name : Dolby Digital
Codec ID : A_AC3
Duration : 56 min 53 s
Bit rate mode : Constant
Bit rate : 192 kb/s
Channel(s) : 2 channels
Channel layout : L R
Sampling rate : 48.0 kHz
Frame rate : 31.250 FPS (1536 SPF)
Bit depth : 16 bits
Compression mode : Lossy
Stream size : 78.1 MiB (3%)
Service kind : Complete Main
Default : Yes
Forced : No

pb.wtf



Скачать Ведьма через торрент https://c.radikal.ru/c10/1906/e0/27c040ee830f.jpg Скачать фильм Ведьма через торрент бесплантно в хорошем качестве Описание: Невероятные события происходят в глухой деревне. Один тревожный день меняет судьбы всех её жителей. Все началось с появления ... 10 10 2
Info! Золотая раздача, скачанное не засчитывается.
Торрент: Зарегистрирован [2019-07-08 02:20] · скачан: 17 раз
Статус: √ проверено
Размер: 40.64 GB
Как cкачать? Как скачать Ведьма через торрент | qTorrent

% Раздел Тема Автор DL S | L
Зарубежные сериалы [ 139.26 GB ] Ведьмак / The Witcher / Сезон: 1 / Серии: 1-8 из 8 [2019 UHD WEB-DL 2160p] [SDR] DUB [Пифагор / Netflix] bober100 Скачать
2 | 0
Зарубежные сериалы [ 27.58 GB ] Ведьмак / The Witcher / Сезон: 1 / Серии: 1-8 из 8 [2019 UHD WEB-DLRip 2160p] [SDR] MVO [LostFilm] bober100 Скачать
1 | 0
Зарубежные сериалы [ 137.98 GB ] Ведьмак / The Witcher / Сезон: 1 / Серии: 1-8 из 8 [2019 UHD WEB-DLRip 2160p] [SDR] MVO [TVShows] bober100 Скачать
4 | 0
Зарубежные сериалы [ 65.6 GB ] Ведьмак / The Witcher / Сезон: 1 / Серии: 1-8 из 8 [2019 UHD WEB-DLRip 2160p] DUB [Пифагор / Netflix] bober100 Скачать
1 | 0
Наши сериалы [ 6.3 GB ] Ведьма / Сезон: 1 / Серии: 1-6 из 16 [2019 Мело WEB-DL 1080p] bober100 Скачать
1 | 0
Наши сериалы [ 5.11 GB ] Ведьма / Сезон: 1 / Серии: 1-8 из 16 [2019 Мело WEBRip-AVC] bober100 Скачать
1 | 0
Наши сериалы [ 10.21 GB ] Ведьма / Сезон: 1 / Серии: 1-16 из 16 [2019 Мело WEB-DLRip] bober100 Скачать
2 | 0

28-11-2019 20:33  

Отключить всю рекламу на сайте

11-07-2019 18:30 Ведьма Скачать торрент  

Боже мой, какая мууууть! Зачем это снимать? Даже старые детские сказки смотрятся более реалистично. Понятно, что тема подразумевает некоторую фантастичность, но данный сериал не вмещается ни в какие рамки. Столько глупости и театральщины на минуту времени мне еще видеть не приходилось. Обычно я не смотрю фильмы канала России, а тут что-то ничего другого не попалось. Угораздило посмотреть сей "шедевр".pb.wtf



    Дорогой пользователь! Огромная просьба, поблагодарите релизера, оцените раздачу и оставьте свои комментарий, если Вы скачали Ведьма через торрент бесплатно! Внесите свою лепту в развитие PiratBit!
    Комментировать посты могут только пользователи прошедшие не сложную регистрацию
    Показать сообщения:    

    Ведьма через торрент
    Скачать бесплатно Ведьма
    Ведьма скачать торрент
    Ведьма смотреть онлайн
    Cкачать фильм Ведьма бесплатно
    Ведьма скачать торрент в хорошем качестве
    Ведьма смотреть онлайн бесплатно в хорошем качестве


    Вы не можете начинать темы
    Вы не можете отвечать на сообщения
    Вы не можете редактировать свои сообщения
    Вы не можете удалять свои сообщения
    Вы не можете голосовать в опросах
    Вы не можете прикреплять файлы к сообщениям
    Вы можете скачивать файлы