новый адрес
Ссылка на приватное зеркало всего за 1$. Внимание количество ограничено!!!

iTunes

1+1

iTunes

мы

iTunes

1

iTunes

Чернобыль

iTunes

Ральф против интернета

Лицензия

ПШазам

Лицензия

Оно 2

Лицензия

30
pack

Вам бонус

ВАЖНО

!!Акция!!

Alien_RageХит недели

RePack

Resident Evil 21

ИГРА 18+

pack

RePack

jed

!!Акция!!

Alien_Rage

RePack

fifa19

RePack

Assassins Creed: Odyssey

RePack

NEED FOR SPEED™ PAYBACK

3 сезон

9 сезон

Бесстыжие 9 сезон

Все сериалы

все сериалы на PB.wtf

RePack

FAR CRY 5
Ребята, катастрофически не хватает 1900р. для оплаты серверов за Октябрь (всвязи с блокировками трафик упал в 3 раза), 1-2р., выручайте.
  

Очень странные дела / Stranger Things / 3 сезон / 1-8 серии из 8 (Мэтт Даффер, Росс Даффер) [2019, ужасы, триллер, драма, UHD WEB-DL 2160p] [SDR] DUB [Пифагор] pb.wtf

Очень странные дела через торрент pb.wtf

Размер: 126.92 GB | Добавлен: 4 мес. 13 д. назад | Торрент скачан:20 раз
Скачать  

08-07-2019 12:03 Очень странные дела Скачать торрент  

Очень странные дела / Stranger Things«The world is turning upside down»
Год выпуска: 2019
Страна: США
Жанр: ужасы, фантастика, фэнтези, триллер, драма, детектив
Продолжительность: 8 x ~ 00:50:00
Перевод: Дублированный | Пифагор по заказу Netflix
Субтитры: Русские (Forced, Full ), английские (Forced, Full)
Режиссер: Мэтт Даффер, Росс Даффер, Шон Леви
В ролях:

Вайнона Райдер (Joyce Byers), Дэвид Харбор (Jim Hopper), Финн Вулфард (Mike Wheeler), Милли Бобби Браун (Eleven), Гейтен Матараццо (Dustin Henderson), Калеб МакЛафлин (Lucas Sinclair), Наталия Дайер (Nancy Wheeler), Чарли Хитон (Jonathan Byers), Кара Буоно (Karen Wheeler), Джо Кири (Steve Harrington), Ноа Шнапп (Will Byers), Сэди Синк (Max Mayfield)
Описание:
Действие сериала разворачивается в 80-х годах в тихом провинциальном городке. Благоприятное течение местной жизни нарушает загадочное исчезновение подростка по имени Уилл. Выяснить обстоятельства дела полны решимости родные мальчика и местный шериф. Также события затрагивают лучшего друга Уилла - Майка. Он начинает собственное расследование. Майк уверен, что близок к разгадке, и теперь ему предстоит оказаться в эпицентре ожесточенной битвы потусторонних сил.
Рейтинг:

Качество: UHD WEB-DL 2160p | SDR
Формат: MKV
Видео: MPEG-4 AVC, ~ 40.0 Мбит/с, 3840x1920, 23.976 кадр/с, 8 бит
Аудио: E-AC3, 48 kHz, 3/2 (L,C,R,l,r) + LFE ch, 640 Кбит/сек | Профессиональный (дублированный) | Пифагор
Аудио: E-AC3, 48 kHz, 3/2 (L,C,R,l,r) + LFE ch, 640 Кбит/сек

Релиз без рекламы
Общее
Уникальный идентификатор : 173519228774796646095463450662991164623 (0x828A967E27113C4B8965AEA41C5DF4CF)
Полное имя : E:\Stranger.Things.2019.S03.WEB-DL.2160p.8bit.SDR.Master5\Stranger.Things.S03E01.WEB-DL.2160p.8bit.SDR.Master5.mkv
Формат : Matroska
Версия формата : Version 4 / Version 2
Размер файла : 11,5 Гбайт
Продолжительность : 50 м. 33 с.
Общий поток : 32,6 Мбит/сек
Название фильма : Stranger.Things.S03E01.WEB-DL.2160p.8bit.SDR.Master5
Дата кодирования : UTC 2019-07-08 05:17:11
Программа кодирования : mkvmerge v7.9.0 ('Birds') 64bit
Библиотека кодирования : libebml v1.3.1 + libmatroska v1.4.2

Видео
Идентификатор : 1
Формат : AVC
Формат/Информация : Advanced Video Codec
Профиль формата : High@L5.1
Настройки формата : CABAC / 6 Ref Frames
Параметр CABAC формата : Да
Параметр RefFrames формата : 6 кадров
Идентификатор кодека : V_MPEG4/ISO/AVC
Продолжительность : 50 м. 33 с.
Битрейт : 31,3 Мбит/сек
Ширина : 3840 пикселей
Высота : 1920 пикселей
Соотношение сторон : 2,000
Режим частоты кадров : Постоянный
Частота кадров : 23,976 (24000/1001) кадра/сек
Цветовое пространство : YUV
Субдискретизация насыщенности : 4:2:0
Битовая глубина : 8 бит
Тип развёртки : Прогрессивная
Бит/(Пиксели*Кадры) : 0.177
Размер потока : 11,1 Гбайт (96%)
Заголовок : Stranger.Things.S03E01.WEB-DL.2160p.8bit.SDR.Master5
Библиотека кодирования : x264 core 157 r2935 545de2f
Настройки программы : cabac=1 / ref=6 / deblock=1:-3:-3 / analyse=0x3:0x133 / me=umh / subme=10 / psy=1 / psy_rd=1.00:0.15 / mixed_ref=1 / me_range=48 / chroma_me=1 / trellis=2 / 8x8dct=1 / cqm=0 / deadzone=21,11 / fast_pskip=1 / chroma_qp_offset=-3 / threads=48 / lookahead_threads=8 / sliced_threads=0 / nr=0 / decimate=1 / interlaced=0 / bluray_compat=0 / constrained_intra=0 / bframes=8 / b_pyramid=2 / b_adapt=2 / b_bias=0 / direct=3 / weightb=1 / open_gop=0 / weightp=2 / keyint=250 / keyint_min=23 / scenecut=40 / intra_refresh=0 / rc=crf / mbtree=0 / crf=22.0 / qcomp=0.60 / qpmin=0 / qpmax=69 / qpstep=4 / ip_ratio=1.40 / pb_ratio=1.30 / aq=1:1.00
Язык : English
Default : Да
Forced : Нет

Аудио #1
Идентификатор : 2
Формат : E-AC-3
Формат/Информация : Enhanced Audio Coding 3
Идентификатор кодека : A_EAC3
Продолжительность : 50 м. 33 с.
Вид битрейта : Постоянный
Битрейт : 640 Кбит/сек
Каналы : 6 каналов
Расположение каналов : Front: L C R, Side: L R, LFE
Частота : 48,0 КГц
Частота кадров : 187,500 кадров/сек (256 SPF)
Метод сжатия : С потерями
Размер потока : 231 Мбайт (2%)
Язык : Russian
ServiceKind/String : Complete Main
Default : Да
Forced : Нет

Аудио #2
Идентификатор : 3
Формат : E-AC-3
Формат/Информация : Enhanced Audio Coding 3
Идентификатор кодека : A_EAC3
Продолжительность : 50 м. 33 с.
Вид битрейта : Постоянный
Битрейт : 640 Кбит/сек
Каналы : 6 каналов
Расположение каналов : Front: L C R, Side: L R, LFE
Частота : 48,0 КГц
Частота кадров : 187,500 кадров/сек (256 SPF)
Метод сжатия : С потерями
Размер потока : 231 Мбайт (2%)
Язык : English
ServiceKind/String : Complete Main
Default : Нет
Forced : Нет

Текст #1
Идентификатор : 4
Формат : UTF-8
Идентификатор кодека : S_TEXT/UTF8
Идентификатор кодека/Информация : UTF-8 Plain Text
Продолжительность : 48 м. 37 с.
Битрейт : 2 бит/сек
ElementCount : 18
Размер потока : 810 байт (0%)
Заголовок : Forced
Язык : Russian
Default : Да
Forced : Да

Текст #2
Идентификатор : 5
Формат : UTF-8
Идентификатор кодека : S_TEXT/UTF8
Идентификатор кодека/Информация : UTF-8 Plain Text
Продолжительность : 48 м. 40 с.
Битрейт : 60 бит/сек
ElementCount : 496
Размер потока : 21,7 Кбайт (0%)
Заголовок : Full
Язык : Russian
Default : Нет
Forced : Нет

Текст #3
Идентификатор : 6
Формат : UTF-8
Идентификатор кодека : S_TEXT/UTF8
Идентификатор кодека/Информация : UTF-8 Plain Text
Продолжительность : 39 м. 59 с.
Битрейт : 0 бит/сек
ElementCount : 14
Размер потока : 297 байт (0%)
Заголовок : Forced
Язык : English
Default : Нет
Forced : Нет

Текст #4
Идентификатор : 7
Формат : UTF-8
Идентификатор кодека : S_TEXT/UTF8
Идентификатор кодека/Информация : UTF-8 Plain Text
Продолжительность : 48 м. 53 с.
Битрейт : 57 бит/сек
ElementCount : 778
Размер потока : 20,5 Кбайт (0%)
Заголовок : Full
Язык : English
Default : Нет
Forced : Нет
Когда раздача ведётся путём добавления новых серий, при каждом добавлении создётся новый торрент. Чтобы начать докачку новой серии, пользователям необходимо сделать следующее:
(1) остановить скачивание,
(2) удалить старый торрент у себя из клиента (старые серии удалять не надо),
(3) скачать новый торрент и запустить его у себя в клиенте вместо старого, при этом указать клиенту путь в старую папку, куда и должно происходить скачивание новых серий.
Ваш клиент при этом должен произвести хеширование (проверку) старой папки (если не производит сам - помогите ему сделать это), и будет докачивать только те серии, которых у вас ещё нет. Старые серии при этом не удаляются, а продолжают раздаваться!
Eсли вы уже удалили старые серии, то предотвратить повторную закачку старых серий можно, отжав галочку в соответсвующих местах при запуске нового торрента. По возможности, желательно не удалять старые серии как можно дольше, чтобы релизёр не столько продолжал раздавать старые серии, а смог сконцентрироваться на новых.
pb.wtf



Скачать Очень странные дела через торрент https://d.radikal.ru/d02/1907/8f/d2f6d9ac4d02.png Скачать фильм Очень странные дела через торрент бесплантно в хорошем качестве Описание: Действие сериала разворачивается в 80-х годах в тихом провинциальном городке. Благоприятное течение местной жизни нарушает ... 10 10 2
Торрент: Зарегистрирован [2019-07-08 12:03] · скачан: 20 раз
Статус: √ проверено
Размер: 126.92 GB
Как cкачать? Как скачать Очень странные дела через торрент | qTorrent

% Раздел Тема Автор DL S | L
Зарубежные сериалы [ 6.25 GB ] Очень странные дела / Stranger Things / Сезон: 3 / Серии: 1-8 из 8 [2019 . WEB-DLRip] MVO [LostFilm] bober100 Скачать
4 | 0
Зарубежные сериалы [ 14.41 GB ] Очень странные дела / Загадочные события / Stranger Things / Сезон: 3 / Серии: 1-8 из 8 [2019 WEBRip 720p] MVO [Lostfilm] bober100 Скачать
3 | 0
Зарубежные сериалы [ 44 GB ] Очень странные дела / Загадочные события / Stranger Things / Сезон: 3 / Серии: 1-8 из 8 [2019 WEB-DL 1080p] MVO [LostFilm] bober100 Скачать
2 | 0
Зарубежные сериалы [ 51.78 GB ] Очень странные дела / Stranger Things / 3 сезон / 1-8 серии из 8 [2019 UHD WEB-DL 2160p] MVO [AMS] sheker187 Скачать
1 | 0
Зарубежные сериалы [ 54.66 GB ] Очень странные дела / Stranger Things / 3 сезон / 1-8 серии из 8 [2019 UHD WEB-DL 2160p] [Dolby Vision TV] MVO [AMS] sheker187 Скачать
1 | 0
Зарубежные сериалы [ 51.78 GB ] Очень странные дела / Stranger Things / 3 сезон / 1-8 серии из 8 [2019 UHD WEB-DL 2160p] DUB [Пифагор] sheker187 Скачать
1 | 0
Зарубежные сериалы [ 51.84 GB ] Очень странные дела / Stranger Things / Сезон: 3 / Серии: 1-8 из 8 [2019 UHD WEB-DL 2160p] [SDR] DUB [Пифагор] bober100 Скачать
1 | 0


>> Переходим по ссылке <<
Автоматически подгузится скрипт который настроит ваш браузер на выигрыш!!
После настройки браузера вероятность выигрыша увеличется в 4.1-4,6 раза.
В течение 6 секунд вам откроется настроенный интерфейс казино, с повышенной вероятностью выигрыша.






Отзывы и комментарии о схеме читаем и пишем здесь: ---> Отзывы и комментарии о схеме

Новые благодарочки в телеграм довольных пользователей:
скриншот   скриншот   скриншот   скриншот   скриншот
    Дорогой пользователь! Огромная просьба, поблагодарите релизера, оцените раздачу и оставьте свои комментарий, если Вы скачали Очень странные дела через торрент бесплатно! Внесите свою лепту в развитие PiratBit!
    Комментировать посты могут только пользователи прошедшие не сложную регистрацию
    Показать сообщения:    

    Очень странные дела через торрент
    Скачать бесплатно Очень странные дела
    Очень странные дела скачать торрент
    Очень странные дела смотреть онлайн
    Cкачать фильм Очень странные дела бесплатно
    Очень странные дела скачать торрент в хорошем качестве
    Очень странные дела смотреть онлайн бесплатно в хорошем качестве


    Вы не можете начинать темы
    Вы не можете отвечать на сообщения
    Вы не можете редактировать свои сообщения
    Вы не можете удалять свои сообщения
    Вы не можете голосовать в опросах
    Вы не можете прикреплять файлы к сообщениям
    Вы можете скачивать файлы