Ссылка на приватное зеркало нашего сайта всего за 1$. Внимание количество ограничено!!!

2 сезон

iTunes

1 сезон

1

2 сезон

2 сезон

iTunes

1 сезон

RePack

30

Ultimate

ВАЖНО

ИГРА 18+

pack

RePack

MK11
pack

Забери бонус

RePack

jed

!!Акция!!

Alien_Rage

RePack

fifa19

RePack

Assassins Creed: Odyssey

RePack

NEED FOR SPEED™ PAYBACK

4 сезон

9 сезон

Бесстыжие 9 сезон

Все сериалы

все сериалы на PB.wtf

RePack

FAR CRY 5
  

Форт Аламо / The Alamo (Джон Ли Хэнкок) [2004 г., драма, вестерн, военный, история, WEB-DLRip 720p] Dub + MVO + DVO + VO - KORSAR pb.wtf

Форт Аламо через торрент pb.wtf

Размер: 5.84 GB | Добавлен: 1 год 4 мес. назад | Торрент скачан:33 раза
Скачать  

08-07-2019 14:07 Форт Аламо Скачать торрент  

Название: Форт Аламо
Оригинальное название: The Alamo
Год выхода: 2004
Жанр: Драма, вестерн, военный, история
Выпущено: США, Touchstone Pictures
Продолжительность: 02:16:38
Перевод: Дублированный, профессиональный многоголосый, профессиональный двухголосый, любительский одноголосый
Режиссер: Джон Ли Хэнкок
В ролях: Билли Боб Торнтон, Дэннис Куэйд, Джейсон Патрик, Патрик Уилсон, Эмилио Эчеварриа, Хорди Молья, Леон Риппи, Марк Блукас, Роберт Прентисс, Кевин Пейдж, Джо Стивенс, Стефен Брутон, Лаура Клифтон, Рикардо Чавира, Стивен Честер Принс, Крэйг Эриксон, Ник Кокич, Ричард Нэнс, Эстефания ЛеБарон, Афемо Омилами, Эдвин Ходж, Эмили Дешанель, Блу Декерт, Турк Пипкин, Томми Дж. Кендрик, Эрл Браун, Том Эверетт, Рэнс Ховард

Описание: В начале XIX века Техас был частью Мексики. Но когда североамериканцев в штате стало больше, чем мексиканцев, пришлые северяне англо-американского происхождения, при поддержке США, подняли мятеж, и решили отделиться от Мексики в пользу Соединённых Штатов. Началась война, одним из трагических событий которой стала осада мексиканскими войсками, с целью вернуть северные территории под контроль Мексики, форта Аламо, в котором закрепились двести северян сепаратистов. Впоследствии их план, в конце концов удался, благодаря бездарному и жестокому командованию мексиканского генерала Антонио Лопеса де Санта-Анны, который, будучи захвачен в плен, в обмен на свою жизнь, признал полную и абсолютную независимость «Техасской республики». В результате договора Гвадалупе-Идальго, Мексика потеряла большую часть своей территории.

rating

Качество: WEB-DLRip 720p
Видео: MPEG-4 AVC, 3810 Кбит/сек, 1280x530, 23.976 кадра/сек
Аудио 1: AC3, 6 ch, 384 Кбит/сек | Русский, профессиональный (полное дублирование) Нева-Фильм
Аудио 2: AC3, 6 ch, 384 Кбит/сек | Русский, профессиональный (многоголосый закадровый)
Аудио 3: AC3, 6 ch, 448 Кбит/сек | Русский, профессиональный (двухголосый закадровый)
Аудио 4: AC3, 6 ch, 448 Кбит/сек | Русский, любительский (одноголосый закадровый)
Аудио 5: EAC3, 6 ch, 640 Кбит/сек | Английский, оригинал
Субтитры: Русские, английские, польские, турецкие, испанские, французские, итальянские, финские
Навигация по главам: Есть

Релиз от:
скриншот  скриншот  скриншот  скриншот  скриншот  скриншот  
• x264 [info]: frame I:1607 Avg QP:12.30 size: 127674
• x264 [info]: frame P:46667 Avg QP:15.78 size: 42357
• x264 [info]: frame B:148266 Avg QP:18.21 size: 11733

========================================

Общее
Уникальный идентификатор : 237799886561428034974652948482051092890 (0xB2E6979C638A8931A9A4627EDD01319A)
Полное имя : The.Alamo.2004.WEB-DLRip.720p.KORSAR.mkv
Формат : Matroska
Версия формата : Version 2
Размер файла : 5,84 Гбайт
Продолжительность : 2 ч. 16 м.
Общий поток : 6114 Кбит/сек
Дата кодирования : UTC 2017-06-27 10:21:47
Программа кодирования : mkvmerge v5.8.0 ('No Sleep / Pillow') built on Sep 2 2012 15:37:04
Библиотека кодирования : libebml v1.2.3 + libmatroska v1.3.0

Видео
Идентификатор : 1
Формат : AVC
Формат/Информация : Advanced Video Codec
Профиль формата : High@L4.1
Параметр CABAC формата : Да
Параметр ReFrames формата : 12 кадров
Идентификатор кодека : V_MPEG4/ISO/AVC
Продолжительность : 2 ч. 16 м.
Битрейт : 3810 Кбит/сек
Ширина : 1280 пикселей
Высота : 530 пикселей
Соотношение сторон : 2,40:1
Режим частоты кадров : Постоянный
Частота кадров : 23,976 (24000/1001) кадра/сек
Цветовое пространство : YUV
Субдискретизация насыщенности : 4:2:0
Битовая глубина : 8 бит
Тип развёртки : Прогрессивная
Бит/(Пиксели*Кадры) : 0.234
Размер потока : 3,52 Гбайт (60%)
Заголовок : The.Alamo.2004.WEB-DLRip.720p.KORSAR
Библиотека кодирования : x264 core 150 r2833kMod df79067
Настройки программы : cabac=1 / ref=12 / deblock=1:-2:-2 / analyse=0x3:0x113 / me=umh / subme=11 / psy=1 / fade_compensate=0.00 / psy_rd=1.00:0.00 / mixed_ref=1 / me_range=48 / chroma_me=1 / trellis=2 / 8x8dct=1 / cqm=0 / deadzone=21,11 / fast_pskip=0 / chroma_qp_offset=-2 / threads=6 / lookahead_threads=1 / sliced_threads=0 / nr=0 / decimate=0 / interlaced=0 / bluray_compat=0 / constrained_intra=0 / bframes=16 / b_pyramid=2 / b_adapt=2 / b_bias=0 / direct=3 / weightb=1 / open_gop=0 / weightp=2 / keyint=250 / keyint_min=23 / scenecut=40 / intra_refresh=0 / rc_lookahead=60 / rc=2pass / mbtree=1 / bitrate=3810 / ratetol=1.0 / qcomp=0.60 / qpmin=0 / qpmax=69 / qpstep=4 / cplxblur=20.0 / qblur=0.5 / vbv_maxrate=50000 / vbv_bufsize=62500 / nal_hrd=none / filler=0 / ip_ratio=1.40 / aq=3:1.00
Язык : English
Default : Да
Forced : Нет
Цветовой диапазон : Limited
Основные цвета : BT.709
Характеристики трансфера : BT.709
Коэффициенты матрицы : BT.709

Аудио #1
Идентификатор : 2
Формат : AC-3
Формат/Информация : Audio Coding 3
Параметр Endianness формата : Big
Идентификатор кодека : A_AC3
Продолжительность : 2 ч. 16 м.
Вид битрейта : Постоянный
Битрейт : 384 Кбит/сек
Каналы : 6 каналов
Расположение каналов : Front: L C R, Side: L R, LFE
Частота : 48,0 КГц
Частота кадров : 31,250 кадров/сек (1536 spf)
Битовая глубина : 16 бит
Метод сжатия : С потерями
Размер потока : 375 Мбайт (6%)
Заголовок : DUB | Нева-Фильм
Язык : Russian
Default : Да
Forced : Нет

Аудио #2
Идентификатор : 3
Формат : AC-3
Формат/Информация : Audio Coding 3
Параметр Endianness формата : Big
Идентификатор кодека : A_AC3
Продолжительность : 2 ч. 16 м.
Вид битрейта : Постоянный
Битрейт : 384 Кбит/сек
Каналы : 6 каналов
Расположение каналов : Front: L C R, Side: L R, LFE
Частота : 48,0 КГц
Частота кадров : 31,250 кадров/сек (1536 spf)
Битовая глубина : 16 бит
Метод сжатия : С потерями
Размер потока : 375 Мбайт (6%)
Заголовок : MVO
Язык : Russian
Default : Нет
Forced : Нет

Аудио #3
Идентификатор : 4
Формат : AC-3
Формат/Информация : Audio Coding 3
Параметр Endianness формата : Big
Идентификатор кодека : A_AC3
Продолжительность : 2 ч. 16 м.
Вид битрейта : Постоянный
Битрейт : 448 Кбит/сек
Каналы : 6 каналов
Расположение каналов : Front: L C R, Side: L R, LFE
Частота : 48,0 КГц
Частота кадров : 31,250 кадров/сек (1536 spf)
Битовая глубина : 16 бит
Метод сжатия : С потерями
Размер потока : 438 Мбайт (7%)
Заголовок : DVO
Язык : Russian
Default : Нет
Forced : Нет

Аудио #4
Идентификатор : 5
Формат : AC-3
Формат/Информация : Audio Coding 3
Параметр Endianness формата : Big
Идентификатор кодека : A_AC3
Продолжительность : 2 ч. 16 м.
Вид битрейта : Постоянный
Битрейт : 448 Кбит/сек
Каналы : 6 каналов
Расположение каналов : Front: L C R, Side: L R, LFE
Частота : 48,0 КГц
Частота кадров : 31,250 кадров/сек (1536 spf)
Битовая глубина : 16 бит
Метод сжатия : С потерями
Задержка видео : 24 мс.
Размер потока : 438 Мбайт (7%)
Заголовок : VO
Язык : Russian
Default : Нет
Forced : Нет

Аудио #5
Идентификатор : 6
Формат : E-AC-3
Формат/Информация : Enhanced Audio Coding 3
Параметр Endianness формата : Big
Идентификатор кодека : A_EAC3
Продолжительность : 2 ч. 16 м.
Вид битрейта : Постоянный
Битрейт : 640 Кбит/сек
Каналы : 6 каналов
Расположение каналов : Front: L C R, Side: L R, LFE
Частота : 48,0 КГц
Частота кадров : 187,500 кадров/сек (256 spf)
Метод сжатия : С потерями
Размер потока : 625 Мбайт (10%)
Заголовок : Original
Язык : English
Default : Нет
Forced : Нет

Текст #1
Идентификатор : 7
Формат : UTF-8
Идентификатор кодека : S_TEXT/UTF8
Идентификатор кодека/Информация : UTF-8 Plain Text
Язык : Russian
Default : Нет
Forced : Нет

Текст #2
Идентификатор : 8
Формат : UTF-8
Идентификатор кодека : S_TEXT/UTF8
Идентификатор кодека/Информация : UTF-8 Plain Text
Заголовок : На вшитые субтитры
Язык : Russian
Default : Нет
Forced : Нет

Текст #3
Идентификатор : 9
Формат : UTF-8
Идентификатор кодека : S_TEXT/UTF8
Идентификатор кодека/Информация : UTF-8 Plain Text
Язык : English
Default : Нет
Forced : Нет

Текст #4
Идентификатор : 10
Формат : UTF-8
Идентификатор кодека : S_TEXT/UTF8
Идентификатор кодека/Информация : UTF-8 Plain Text
Заголовок : SDH
Язык : English
Default : Нет
Forced : Нет

Текст #5
Идентификатор : 11
Формат : UTF-8
Идентификатор кодека : S_TEXT/UTF8
Идентификатор кодека/Информация : UTF-8 Plain Text
Язык : Polish
Default : Нет
Forced : Нет

Текст #6
Идентификатор : 12
Формат : UTF-8
Идентификатор кодека : S_TEXT/UTF8
Идентификатор кодека/Информация : UTF-8 Plain Text
Язык : Turkish
Default : Нет
Forced : Нет

Текст #7
Идентификатор : 13
Формат : UTF-8
Идентификатор кодека : S_TEXT/UTF8
Идентификатор кодека/Информация : UTF-8 Plain Text
Язык : Spanish
Default : Нет
Forced : Нет

Текст #8
Идентификатор : 14
Формат : UTF-8
Идентификатор кодека : S_TEXT/UTF8
Идентификатор кодека/Информация : UTF-8 Plain Text
Язык : French
Default : Нет
Forced : Нет

Текст #9
Идентификатор : 15
Формат : UTF-8
Идентификатор кодека : S_TEXT/UTF8
Идентификатор кодека/Информация : UTF-8 Plain Text
Язык : Italian
Default : Нет
Forced : Нет

Текст #10
Идентификатор : 16
Формат : UTF-8
Идентификатор кодека : S_TEXT/UTF8
Идентификатор кодека/Информация : UTF-8 Plain Text
Язык : Finnish
Default : Нет
Forced : Нет

Меню
00:00:00.000 : en:Chapter 1
00:06:26.840 : en:Chapter 2
00:15:02.840 : en:Chapter 3
00:24:43.680 : en:Chapter 4
00:30:11.800 : en:Chapter 5
00:37:58.920 : en:Chapter 6
00:44:13.880 : en:Chapter 7
00:52:40.320 : en:Chapter 8
00:58:01.720 : en:Chapter 9
01:04:03.080 : en:Chapter 10
01:11:56.640 : en:Chapter 11
01:17:43.320 : en:Chapter 12
01:23:41.120 : en:Chapter 13
01:29:08.960 : en:Chapter 14
01:33:35.400 : en:Chapter 15
01:46:05.360 : en:Chapter 16
01:57:33.200 : en:Chapter 17
02:03:12.800 : en:Chapter 18
02:11:05.000 : en:Chapter 19
pb.wtf



Скачать Форт Аламо через торрент https://i5.imageban.ru/out/2019/07/08/cc1b7d2d03d2a9abaa510f0ee9d97395.png Скачать фильм Форт Аламо через торрент бесплантно в хорошем качестве Описание: В начале XIX века Техас был частью Мексики. Но когда североамериканцев в штате стало больше, чем мексиканцев, пришлые северяне ... 9.7 10 3
Info! Золотая раздача, скачанное не засчитывается.
Торрент: Зарегистрирован [2019-07-08 14:07] · скачан: 33 раз
Статус: √ проверено
Размер: 5.84 GB
Как cкачать? Как скачать Форт Аламо через торрент | qTorrent

28-11-2019 20:33  

Отключить всю рекламу на сайте

    Дорогой пользователь! Огромная просьба, поблагодарите релизера, оцените раздачу и оставьте свои комментарий, если Вы скачали Форт Аламо через торрент бесплатно! Внесите свою лепту в развитие PiratBit!
    Комментировать посты могут только пользователи прошедшие не сложную регистрацию
    Показать сообщения:    

    Форт Аламо через торрент
    Скачать бесплатно Форт Аламо
    Форт Аламо скачать торрент
    Форт Аламо смотреть онлайн
    Cкачать фильм Форт Аламо бесплатно
    Форт Аламо скачать торрент в хорошем качестве
    Форт Аламо смотреть онлайн бесплатно в хорошем качестве


    Вы не можете начинать темы
    Вы не можете отвечать на сообщения
    Вы не можете редактировать свои сообщения
    Вы не можете удалять свои сообщения
    Вы не можете голосовать в опросах
    Вы не можете прикреплять файлы к сообщениям
    Вы можете скачивать файлы