Ссылка на приватное зеркало нашего сайта всего за 1$. Внимание количество ограничено!!!

2 сезон

iTunes

1 сезон

1

2 сезон

2 сезон

iTunes

1 сезон

RePack

30

Ultimate

ВАЖНО

ИГРА 18+

pack

RePack

MK11
pack

Забери бонус

RePack

jed

!!Акция!!

Alien_Rage

RePack

fifa19

RePack

Assassins Creed: Odyssey

RePack

NEED FOR SPEED™ PAYBACK

4 сезон

9 сезон

Бесстыжие 9 сезон

Все сериалы

все сериалы на PB.wtf

RePack

FAR CRY 5
  

Улицы Сан Франциско / The Streets of San Francisco / Сезон: 1 / Серии: 1-2, 4-26 из 26 (Вирджил В. Фогель) [1972, боевик, драма, криминал, детектив, HDTVRip 720p] [DVO] (CBS Drama) + [MVO] (Останкино) pb.wtf

Улицы Сан Франциско через торрент pb.wtf

Размер: 33.7 GB | Добавлен: 1 год 4 мес. назад | Торрент скачан:3 раза
Скачать  

08-07-2019 14:16 Улицы Сан Франциско Скачать торрент  

Улицы Сан Франциско / The Streets of San Francisco
Год выпуска: 1972
Страна: США
Студия: Warner Bros Entertainment, QM Productions
Жанр: боевик, драма, криминал, детектив
Продолжительность: ~00:50:00 - серия
Перевод:
  • Профессиональный (двухголосый закадровый) CBS Drama |Геннадий Новиков, Елена Шульман|
  • [Профессиональный (многоголосый закадровый) студия "Фильм-Экспорт" по заказу Останкино |Ирина Савина, Артём Карпетян, Владислав Ковальков, Владимир Конкин, Вячеслав Баранов, Александр Клюквин|

    Режиссёр: Вирджил В. Фогель, Уолтер Громан, Уильям Хейл

    В ролях: Карл Молден, Майкл Дуглас, Рубен Коллинз, Ричард Хэтч, Стефен Брэдли, Ли Харрис, Дарлин Карр, Рэй К. Гоман, Джон Керр, Фред Сэдофф и другие.

    Описание: Пара детективов в штатском — лейтенант Майк Стоун (Карл Молден) и инспектор Стив Келлер (Майкл Дуглас), путешествуют по улицам Сан-Франциско, расследуя различные преступления, которые обычно связаны с убийствами. Стоун, закаленный улицей ветеран, проработавший в полиции 20 лет. Келлер — сообразительный новичок, недавно окончивший колледж.
    РЕЛИЗ ОТ: V.SERIJ2013

    rating
    Качество: HDTVRip 720p
    Формат: MKV
    Видео кодек: AVC
    Аудио кодек: AC3
    Видео: MPEG-4 AVC, 960x720, 25.000 fps, ~3372 kbps
    Аудио:
  • русская |CBS Drama|: 48 kHz, AC3, 2/0 (L,R) ch, ~192 kbps avg
    русская |Останкино (1 серия)|: 48 kHz, AC3, 2/0 (L,R) ch, ~192 kbps avg
  • английская |Оригинал|: 48 kHz, AC3, 3/2 (L,C,R,l,r) + LFE ch, ~384 kbps avg
    Субтитры: русские (1-2, 4, 6, 8 серии), английские (1-2, 4, 6, 8 серии)
    Сэмпл \

    скриншот  скриншот  скриншот  
    General
    Unique ID : 39960979304676029435655790662383387297 (0x1E103464ECC4C7AB823ADC65116D42A1)
    Complete name : E:\Video\HD\The Streets of San Francisco Season 1 (HDTVRip 720p)\01. The Thirty-Year Pin.mkv
    Format : Matroska
    Format version : Version 4 / Version 2
    File size : 1.41 GiB
    Duration : 47mn 43s
    Overall bit rate : 4 221 Kbps
    Encoded date : UTC 2019-06-27 11:30:35
    Writing application : mkvmerge v20.0.0 ('I Am The Sun') 32-bit
    Writing library : libebml v1.3.5 + libmatroska v1.4.8
    DURATION : 00:47:43.040000000
    NUMBER_OF_FRAMES : 89470
    NUMBER_OF_BYTES : 68712960
    _STATISTICS_WRITING_APP : mkvmerge v20.0.0 ('I Am The Sun') 32-bit
    _STATISTICS_WRITING_DATE_UTC : 2019-06-27 11:30:35
    _STATISTICS_TAGS : BPS DURATION NUMBER_OF_FRAMES NUMBER_OF_BYTES

    Video
    ID : 1
    Format : AVC
    Format/Info : Advanced Video Codec
    Format profile : High@L4.1
    Format settings, CABAC : Yes
    Format settings, ReFrames : 5 frames
    Codec ID : V_MPEG4/ISO/AVC
    Duration : 47mn 43s
    Bit rate : 3 369 Kbps
    Width : 960 pixels
    Height : 720 pixels
    Display aspect ratio : 4:3
    Frame rate mode : Constant
    Frame rate : 25.000 fps
    Color space : YUV
    Chroma subsampling : 4:2:0
    Bit depth : 8 bits
    Scan type : Progressive
    Bits/(Pixel*Frame) : 0.195
    Stream size : 1.12 GiB (80%)
    Writing library : x264 core 135 r2345 f0c1c53
    Encoding settings : cabac=1 / ref=5 / deblock=1:-3:-3 / analyse=0x3:0x113 / me=umh / subme=7 / psy=1 / psy_rd=1.00:0.15 / mixed_ref=1 / me_range=16 / chroma_me=1 / trellis=1 / 8x8dct=1 / cqm=0 / deadzone=21,11 / fast_pskip=0 / chroma_qp_offset=-3 / threads=6 / lookahead_threads=1 / sliced_threads=0 / nr=0 / decimate=1 / interlaced=0 / bluray_compat=0 / constrained_intra=0 / bframes=3 / b_pyramid=2 / b_adapt=1 / b_bias=0 / direct=3 / weightb=1 / open_gop=0 / weightp=2 / keyint=250 / keyint_min=25 / scenecut=40 / intra_refresh=0 / rc_lookahead=40 / rc=crf / mbtree=1 / crf=18.0 / qcomp=0.60 / qpmin=0 / qpmax=69 / qpstep=4 / ip_ratio=1.40 / aq=1:1.00
    Language : English
    Default : Yes
    Forced : No

    Audio #1
    ID : 2
    Format : AC-3
    Format/Info : Audio Coding 3
    Mode extension : CM (complete main)
    Format settings, Endianness : Big
    Codec ID : A_AC3
    Duration : 47mn 43s
    Bit rate mode : Constant
    Bit rate : 192 Kbps
    Channel(s) : 2 channels
    Channel positions : Front: L R
    Sampling rate : 48.0 KHz
    Bit depth : 16 bits
    Compression mode : Lossy
    Stream size : 65.5 MiB (5%)
    Title : DVO (CBS Drama)
    Language : Russian
    Default : Yes
    Forced : No

    Audio #2
    ID : 3
    Format : AC-3
    Format/Info : Audio Coding 3
    Mode extension : CM (complete main)
    Format settings, Endianness : Big
    Codec ID : A_AC3
    Duration : 47mn 43s
    Bit rate mode : Constant
    Bit rate : 192 Kbps
    Channel(s) : 2 channels
    Channel positions : Front: L R
    Sampling rate : 48.0 KHz
    Bit depth : 16 bits
    Compression mode : Lossy
    Stream size : 65.5 MiB (5%)
    Title : MVO (Фильм-Экспорт / Останкино)
    Language : Russian
    Default : No
    Forced : No

    Audio #3
    ID : 4
    Format : AC-3
    Format/Info : Audio Coding 3
    Mode extension : CM (complete main)
    Format settings, Endianness : Big
    Codec ID : A_AC3
    Duration : 47mn 43s
    Bit rate mode : Constant
    Bit rate : 384 Kbps
    Channel(s) : 6 channels
    Channel positions : Front: L C R, Side: L R, LFE
    Sampling rate : 48.0 KHz
    Bit depth : 16 bits
    Compression mode : Lossy
    Stream size : 131 MiB (9%)
    Title : Original
    Language : English
    Default : No
    Forced : No

    Text #1
    ID : 5
    Format : UTF-8
    Codec ID : S_TEXT/UTF8
    Codec ID/Info : UTF-8 Plain Text
    Title : megabith555
    Language : Russian
    Default : No
    Forced : No

    Text #2
    ID : 6
    Format : UTF-8
    Codec ID : S_TEXT/UTF8
    Codec ID/Info : UTF-8 Plain Text
    Title : Original
    Language : English
    Default : No
    Forced : No
    pb.wtf



  • Скачать Улицы Сан Франциско через торрент http://s020.radikal.ru/i721/1607/b1/d46b7f8fae4d.jpg Скачать фильм Улицы Сан Франциско через торрент бесплантно в хорошем качестве Описание: Пара детективов в штатском — лейтенант Майк Стоун (Карл Молден) и инспектор Стив Келлер (Майкл Дуглас), путешествуют по улицам ... 5 10 1
    Торрент: Зарегистрирован [2019-07-08 14:16] · скачан: 3 раз
    Статус: √ проверено
    Размер: 33.7 GB
    Как cкачать? Как скачать Улицы Сан Франциско через торрент | qTorrent

    28-11-2019 20:33  

    Отключить всю рекламу на сайте

      Дорогой пользователь! Огромная просьба, поблагодарите релизера, оцените раздачу и оставьте свои комментарий, если Вы скачали Улицы Сан Франциско через торрент бесплатно! Внесите свою лепту в развитие PiratBit!
      Комментировать посты могут только пользователи прошедшие не сложную регистрацию
      Показать сообщения:    

      Улицы Сан Франциско через торрент
      Скачать бесплатно Улицы Сан Франциско
      Улицы Сан Франциско скачать торрент
      Улицы Сан Франциско смотреть онлайн
      Cкачать фильм Улицы Сан Франциско бесплатно
      Улицы Сан Франциско скачать торрент в хорошем качестве
      Улицы Сан Франциско смотреть онлайн бесплатно в хорошем качестве


      Вы не можете начинать темы
      Вы не можете отвечать на сообщения
      Вы не можете редактировать свои сообщения
      Вы не можете удалять свои сообщения
      Вы не можете голосовать в опросах
      Вы не можете прикреплять файлы к сообщениям
      Вы можете скачивать файлы