Ссылка на приватное зеркало нашего сайта всего за 1$. Внимание количество ограничено!!!

2 сезон

iTunes

1 сезон

1

iTunes

iTunes

iTunes

1 сезон

RePack

30

ИГРА 18+

pack

ВАЖНО

!!Акция!!

Alien_RageХит недели

RePack

MK11
pack

Забери бонус

RePack

jed

!!Акция!!

Alien_Rage

RePack

fifa19

RePack

Assassins Creed: Odyssey

RePack

NEED FOR SPEED™ PAYBACK

4 сезон

9 сезон

Бесстыжие 9 сезон

Все сериалы

все сериалы на PB.wtf

RePack

FAR CRY 5
  

Два вагона и четыре мафии / Крутой мент / Den gode stromer / The Good Cop (Лассе Спанг Ольсен / Lasse Spang Olsen) [2004, боевик, комедия, DVDRemux] [VO] (Kevin) pb.wtf

Два вагона и четыре мафии через торрент pb.wtf

Размер: 4.21 GB | Добавлен: 1 год 3 мес. назад | Торрент скачан:6 раз
Скачать  

08-07-2019 15:50 Два вагона и четыре мафии Скачать торрент  

Два вагона и четыре мафии / Крутой мент
Den gode stromer / The Good Cop
Страна: Дания
Жанр: боевик, комедия
Год выпуска: 2004
Продолжительность: 01:26:31
Перевод: любительский (одноголосый закадровый) Kevin

Субтитры: субтитры любительские Kevin, датские, английские
Режиссёр: Лассе Спанг Ольсен / Lasse Spang Olsen

В ролях: Ким Бодниа, Рене Диф, Николас Бро, Роберт Хансен, Ибен Йейле, Томас Бо Ларсен, Николай Костер-Вальдау, Дженс Оккинг, Рикке Луиз Андерссон
Описание:
Полицейский Йенс пускается во все тяжкие, чтобы выпутаться из идиотской ситуации, из-за которой на него «наехало» несколько преступных группировок. Но смекалкой и хитростью можно решить все проблемы…



Качество: DVDRemux
Формат: MKV
Видео: 720x576 (16:9) @ 1024x576, MPEG-2 Video / 6000 kbps / 25 fps /
Аудио 1: MP3, 44,1 kHz, 2ch, 320.00 kbps: [RUS]
Аудио 2: AC3, 48 kHz, 6ch, 448.00 kbps: [DAN]
Аудио 3: AC3, 48 kHz, 2ch, 192.00 kbps: [DAN](Commentary)
Формат субтитров: srt и оригинал
Разбивка на главы: есть
Общее
Уникальный идентификатор : 50736990721557578741790733367485493170 (0x262B96C6DC5B4792EBCC58E747B96FB2)
Полное имя : D:\Ремуксы\[AORE] Cult Films Remuxes\The Good Cop 2004\The Good Cop 2004.mkv
Формат : Matroska
Версия формата : Version 4
Размер файла : 4,21 Гбайт
Продолжительность : 1 ч. 26 м.
Общий поток : 6963 Кбит/сек
Дата кодирования : UTC 2019-03-04 20:02:36
Программа кодирования : mkvmerge v28.2.0 ('The Awakening') 64-bit
Библиотека кодирования : libebml v1.3.6 + libmatroska v1.4.9

Видео
Идентификатор : 1
Формат : MPEG Video
Версия формата : Version 2
Профиль формата : Main@Main
Настройки формата : BVOP
Параметр BVOP формата : Да
Параметр матрицы формата : По умолчанию
Параметр GOP формата : M=3, N=13
Структура изображения : Frame
Идентификатор кодека : V_MPEG2
Идентификатор кодека/Информация : MPEG 1 or 2 Video
Продолжительность : 1 ч. 26 м.
Вид битрейта : Постоянный
Битрейт : 6000 Кбит/сек
Ширина : 720 пикселей
Высота : 576 пикселей
Соотношение сторон : 16:9
Соотношение сторон в оригинале : 2,40:1
Режим частоты кадров : Постоянный
Частота кадров : 25,000 кадров/сек
Стандарт вещания : PAL
Цветовое пространство : YUV
Субдискретизация насыщенности : 4:2:0
Битовая глубина : 8 бит
Тип развёртки : Чересстрочная
Порядок развёртки : Верхнее поле первое
Метод сжатия : С потерями
Бит/(Пиксели*Кадры) : 0.579
Временной код первого кадра : 01:00:00:00
Оригинал временного кода : Group of pictures header
GOP, открыто/закрыто : Открыто
Размер потока : 3,63 Гбайт (86%)
Язык : English
Default : Нет
Forced : Нет
Основные цвета : BT.601 PAL
Характеристики трансфера : BT.470 System B/G
Коэффициенты матрицы : BT.470 System B/G

Аудио #1
Идентификатор : 2
Формат : MPEG Audio
Версия формата : Version 1
Профиль формата : Layer 3
Настройки формата : Joint stereo
Идентификатор кодека : A_MPEG/L3
Идентификатор кодека/Подсказка : MP3
Продолжительность : 1 ч. 26 м.
Вид битрейта : Постоянный
Битрейт : 320 Кбит/сек
Каналы : 2 канала
Частота : 44,1 КГц
Частота кадров : 38,281 кадров/сек (1152 SPF)
Метод сжатия : С потерями
Размер потока : 198 Мбайт (5%)
Заголовок : VO (Kevin)
Язык : Russian
Default : Да
Forced : Нет

Аудио #2
Идентификатор : 3
Формат : AC-3
Формат/Информация : Audio Coding 3
Коммерческое название : Dolby Digital
Идентификатор кодека : A_AC3
Продолжительность : 1 ч. 26 м.
Вид битрейта : Постоянный
Битрейт : 448 Кбит/сек
Каналы : 6 каналов
Channel layout : L R C LFE Ls Rs
Частота : 48,0 КГц
Частота кадров : 31,250 кадров/сек (1536 SPF)
Битовая глубина : 16 бит
Метод сжатия : С потерями
Задержка видео : 12 мс.
Размер потока : 277 Мбайт (6%)
Заголовок : Surround 5.1
Язык : Danish
ServiceKind/String : Complete Main
Default : Нет
Forced : Нет

Аудио #3
Идентификатор : 4
Формат : AC-3
Формат/Информация : Audio Coding 3
Коммерческое название : Dolby Digital
Идентификатор кодека : A_AC3
Продолжительность : 1 ч. 26 м.
Вид битрейта : Постоянный
Битрейт : 192 Кбит/сек
Каналы : 2 канала
Channel layout : L R
Частота : 48,0 КГц
Частота кадров : 31,250 кадров/сек (1536 SPF)
Битовая глубина : 16 бит
Метод сжатия : С потерями
Размер потока : 119 Мбайт (3%)
Заголовок : Commentary
Язык : Danish
ServiceKind/String : Complete Main
Default : Нет
Forced : Нет

Текст #1
Идентификатор : 5
Формат : UTF-8
Идентификатор кодека : S_TEXT/UTF8
Идентификатор кодека/Информация : UTF-8 Plain Text
Продолжительность : 1 ч. 25 м.
Битрейт : 74 бит/сек
ElementCount : 759
Размер потока : 46,8 Кбайт (0%)
Язык : Russian
Default : Нет
Forced : Нет

Текст #2
Идентификатор : 6
Формат : VobSub
Режим смешивания : zlib
Идентификатор кодека : S_VOBSUB
Идентификатор кодека/Информация : Picture based subtitle format used on DVDs
Продолжительность : 1 ч. 25 м.
Битрейт : 3522 бит/сек
ElementCount : 713
Размер потока : 2,16 Мбайт (0%)
Язык : Danish
Default : Нет
Forced : Нет

Текст #3
Идентификатор : 7
Формат : VobSub
Режим смешивания : zlib
Идентификатор кодека : S_VOBSUB
Идентификатор кодека/Информация : Picture based subtitle format used on DVDs
Продолжительность : 1 ч. 25 м.
Битрейт : 3387 бит/сек
ElementCount : 682
Размер потока : 2,08 Мбайт (0%)
Язык : English
Default : Нет
Forced : Нет

Текст #4
Идентификатор : 8
Формат : UTF-8
Идентификатор кодека : S_TEXT/UTF8
Идентификатор кодека/Информация : UTF-8 Plain Text
Продолжительность : 1 ч. 25 м.
Битрейт : 40 бит/сек
ElementCount : 679
Размер потока : 25,8 Кбайт (0%)
Язык : English
Default : Нет
Forced : Нет

Меню
00:00:00.000 : en:Chapter 01
00:09:26.280 : en:Chapter 02
00:20:38.120 : en:Chapter 03
00:28:54.720 : en:Chapter 04
00:34:40.520 : en:Chapter 05
00:40:14.880 : en:Chapter 06
00:50:06.120 : en:Chapter 07
00:58:54.440 : en:Chapter 08
01:06:15.920 : en:Chapter 09
01:11:00.880 : en:Chapter 10
01:16:04.560 : en:Chapter 11
01:22:06.480 : en:Chapter 12
скриншот  скриншот  скриншот  
pb.wtf



Скачать Два вагона и четыре мафии через торрент https://c.radikal.ru/c12/1903/7e/221d447498b1.jpg Скачать фильм Два вагона и четыре мафии через торрент бесплантно в хорошем качестве Описание:Полицейский Йенс пускается во все тяжкие, чтобы выпутаться из идиотской ситуации, из-за которой на него «наехало» несколько ... 5 10 1
Торрент: Зарегистрирован [2019-07-08 15:50] · скачан: 6 раз
Статус: √ проверено
Размер: 4.21 GB
Как cкачать? Как скачать Два вагона и четыре мафии через торрент | qTorrent

28-11-2019 20:33  

Отключить всю рекламу на сайте

08-07-2019 16:11 Два вагона и четыре мафии Скачать торрент  

будем поглядеть pb.wtf



    Дорогой пользователь! Огромная просьба, поблагодарите релизера, оцените раздачу и оставьте свои комментарий, если Вы скачали Два вагона и четыре мафии через торрент бесплатно! Внесите свою лепту в развитие PiratBit!
    Комментировать посты могут только пользователи прошедшие не сложную регистрацию
    Показать сообщения:    

    Два вагона и четыре мафии через торрент
    Скачать бесплатно Два вагона и четыре мафии
    Два вагона и четыре мафии скачать торрент
    Два вагона и четыре мафии смотреть онлайн
    Cкачать фильм Два вагона и четыре мафии бесплатно
    Два вагона и четыре мафии скачать торрент в хорошем качестве
    Два вагона и четыре мафии смотреть онлайн бесплатно в хорошем качестве


    Вы не можете начинать темы
    Вы не можете отвечать на сообщения
    Вы не можете редактировать свои сообщения
    Вы не можете удалять свои сообщения
    Вы не можете голосовать в опросах
    Вы не можете прикреплять файлы к сообщениям
    Вы можете скачивать файлы