Ссылка на приватное зеркало нашего сайта всего за 1$. Внимание количество ограничено!!!

2 сезон

iTunes

1 сезон

1

iTunes

iTunes

iTunes

1 сезон

RePack

30

ИГРА 18+

pack

ВАЖНО

!!Акция!!

Alien_RageХит недели

RePack

MK11
pack

Забери бонус

RePack

jed

!!Акция!!

Alien_Rage

RePack

fifa19

RePack

Assassins Creed: Odyssey

RePack

NEED FOR SPEED™ PAYBACK

4 сезон

9 сезон

Бесстыжие 9 сезон

Все сериалы

все сериалы на PB.wtf

RePack

FAR CRY 5
  

Горилла купается в полдень / Gorilla Bathes At Noon (Душан Макавеев / Dusan Makavejev) [1993, комедия, DVDRemux] pb.wtf

Горилла купается в полдень через торрент pb.wtf

Размер: 3.71 GB | Добавлен: 1 год 3 мес. назад | Торрент скачан:3 раза
Скачать  

08-07-2019 16:19 Горилла купается в полдень Скачать торрент  

Горилла купается в полдень
Gorilla Bathes At Noon
Страна: Германия, Югославия (ФР)
Жанр: Комедия
Год выпуска: 1993
Продолжительность: 01:19:28
Перевод: почти не требуется (большинство реплик на русском)
Режиссёр: Душан Макавеев / Dusan Makavejev

В ролях: Светозар Цветкович, Anita Mancic, Alexandra Rohmig, Петар Божович, Андреас Люсиус, Ева Рас, Давор Янжич, Zoran Ratkovic, Suleyman Boyraz, Natasa Babic-Zoric
Описание: Майор Красной Армии опаздывает на поезд, который должен был вывезти Советские войска из Берлина. Он звонит в Москву и узнает, что его жена ушла от него и что кто-то переехал в его квартиру. Он решает остаться в Берлине, и делает это, становясь человеком между двумя Берлинами. Его единственная собственность небольшой самовар, парадная форма и белый велосипед. Его первые контакты начинаются со знакомства с черным рынком и подпольем. И когда он делает первые шаги в игре на выживание, мы узнает о его прошлом.
В картине использованы сцены из фильма "Падение Берлина" (1949)

Качество: DVDRemux
Формат: MKV
Видео: 720x480 (4:3) @ 640x480, MPEG-2 Video / 6483 kbps / 29,970 fps /
Аудио: AC3, 48 kHz, 2ch, 192.00 kbps
Разбивка на главы: есть
Общее
Уникальный идентификатор : 238269001671357374118434006763663552364 (0xB340F0C5835FC48045115C0E65206F6C)
Полное имя : D:\Ремуксы\[AORE] Cult Films Remuxes\Gorilla Bathes at Noon 1993\Gorilla Bathes At Noon 1993.mkv
Формат : Matroska
Версия формата : Version 2
Размер файла : 3,71 Гбайт
Продолжительность : 1 ч. 19 м.
Режим общего битрейта : Переменный
Общий поток : 6681 Кбит/сек
Дата кодирования : UTC 2019-02-09 09:28:46
Программа кодирования : MakeMKV v1.14.2 win(x64-release)
Библиотека кодирования : libmakemkv v1.14.2 (1.3.5/1.4.7) win(x64-release)

Видео
Идентификатор : 1
OriginalSourceMedium_ID/String : 224 (0xE0)
Формат : MPEG Video
Версия формата : Version 2
Профиль формата : Main@Main
Настройки формата : CustomMatrix / BVOP
Параметр BVOP формата : Да
Параметр матрицы формата : Выборочная
Параметр GOP формата : M=3, N=15
Структура изображения : Frame
Идентификатор кодека : V_MPEG2
Идентификатор кодека/Информация : MPEG 1 or 2 Video
Продолжительность : 1 ч. 19 м.
Вид битрейта : Переменный
Битрейт : 6483 Кбит/сек
Максимальный битрейт : 8000 Кбит/сек
Ширина : 720 пикселей
Высота : 480 пикселей
Соотношение сторон : 4:3
Режим частоты кадров : Постоянный
Частота кадров : 29,970 (30000/1001) кадров/сек
Стандарт вещания : NTSC
Цветовое пространство : YUV
Субдискретизация насыщенности : 4:2:0
Битовая глубина : 8 бит
Тип развёртки : Чересстрочная
Порядок развёртки : Нижнее поле первое
Метод сжатия : С потерями
Бит/(Пиксели*Кадры) : 0.626
Временной код первого кадра : 00:59:58;24
Оригинал временного кода : Group of pictures header
GOP, открыто/закрыто : Закрыто
Размер потока : 3,60 Гбайт (97%)
Язык : English
Default : Нет
Forced : Нет
Основные цвета : BT.601 NTSC
Характеристики трансфера : BT.601
Коэффициенты матрицы : BT.601
Носитель оригинала : DVD-Video

Аудио
Идентификатор : 2
OriginalSourceMedium_ID/String : 189 (0xBD)128 (0x80)
Формат : AC-3
Формат/Информация : Audio Coding 3
Коммерческое название : Dolby Digital
Идентификатор кодека : A_AC3
Продолжительность : 1 ч. 19 м.
Вид битрейта : Постоянный
Битрейт : 192 Кбит/сек
Каналы : 2 канала
Channel layout : L R
Частота : 48,0 КГц
Частота кадров : 31,250 кадров/сек (1536 SPF)
Битовая глубина : 16 бит
Метод сжатия : С потерями
Размер потока : 109 Мбайт (3%)
Заголовок : Stereo
Язык : English
ServiceKind/String : Complete Main
Default : Да
Forced : Нет
Носитель оригинала : DVD-Video

Меню
00:00:00.000 : en:Chapter 01
00:10:00.099 : en:Chapter 02
00:20:00.199 : en:Chapter 03
00:30:00.298 : en:Chapter 04
00:40:00.398 : en:Chapter 05
00:49:59.997 : en:Chapter 06
01:00:00.096 : en:Chapter 07
01:10:00.196 : en:Chapter 08
скриншот  скриншот  скриншот  скриншот  
pb.wtf



Скачать Горилла купается в полдень через торрент https://c.radikal.ru/c04/1902/e1/af3146760de1.jpg Скачать фильм Горилла купается в полдень через торрент бесплантно в хорошем качестве Описание: Майор Красной Армии опаздывает на поезд, который должен был вывезти Советские войска из Берлина. Он звонит в Москву и узнает, что ... 3 10 1
Торрент: Зарегистрирован [2019-07-08 16:19] · скачан: 3 раз
Статус: √ проверено
Размер: 3.71 GB
Как cкачать? Как скачать Горилла купается в полдень через торрент | qTorrent

28-11-2019 20:33  

Отключить всю рекламу на сайте

    Дорогой пользователь! Огромная просьба, поблагодарите релизера, оцените раздачу и оставьте свои комментарий, если Вы скачали Горилла купается в полдень через торрент бесплатно! Внесите свою лепту в развитие PiratBit!
    Комментировать посты могут только пользователи прошедшие не сложную регистрацию
    Показать сообщения:    

    Горилла купается в полдень через торрент
    Скачать бесплатно Горилла купается в полдень
    Горилла купается в полдень скачать торрент
    Горилла купается в полдень смотреть онлайн
    Cкачать фильм Горилла купается в полдень бесплатно
    Горилла купается в полдень скачать торрент в хорошем качестве
    Горилла купается в полдень смотреть онлайн бесплатно в хорошем качестве


    Вы не можете начинать темы
    Вы не можете отвечать на сообщения
    Вы не можете редактировать свои сообщения
    Вы не можете удалять свои сообщения
    Вы не можете голосовать в опросах
    Вы не можете прикреплять файлы к сообщениям
    Вы можете скачивать файлы