Ссылка на приватное зеркало всего за 1$. Внимание количество ограничено!!!

OK

1+1

iTunes

мы

OK

1

WEB-DLRip

Джокер

Пифагор

Ведьмак / The Witcher сериал

Лицензия

ПШазам

ОК

Оно 2

iTunes

30
pack

Вам бонус

ВАЖНО

!!Акция!!

Alien_RageХит недели

RePack

Resident Evil 21

ИГРА 18+

pack

RePack

jed

!!Акция!!

Alien_Rage

RePack

fifa19

RePack

Assassins Creed: Odyssey

RePack

NEED FOR SPEED™ PAYBACK

4 сезон

9 сезон

Бесстыжие 9 сезон

Все сериалы

все сериалы на PB.wtf

RePack

FAR CRY 5
  

Не заглядывайте в подвал / The Forgotten / Don't Look In The Basement (С.Ф. Браунригг / S.F. Brownrigg) [1973, триллер, DVDRemux] [DVO] pb.wtf

Не заглядывайте в подвал через торрент pb.wtf

Размер: 3.55 GB | Добавлен: 6 мес. назад | Торрент скачан:1 раз
Скачать  

08-07-2019 16:31 Не заглядывайте в подвал Скачать торрент  

Не заглядывайте в подвал
The Forgotten / Don't Look In The Basement
Страна: США
Жанр: триллер
Год выпуска: 1973
Продолжительность: 01:29:17
Перевод: профессиональный (двухголосый закадровый)




Режиссёр: С.Ф. Браунригг / S.F. Brownrigg

В ролях: Билл МакГи / Bill McGhee, Джесси Ли Фултон / Jessie Lee Fulton, Майкл Харви / Michael Harvey
Описание: Любители фильмов про психиатрические клиники не должны пропускать этот замечательный фильм. Несмотря на то, что он условно проходит во ведомству "ужасов", это всё же ироничный и местами крайне смешной фильм про психушку, к финалу перерастающий в триллер. Может понравиться и любителям ужасов, и ценителям "арт-хауса".
Итак, где-то за городом находится небольшая экспериментальная клиника, где пациентам разрешено не прятать свои фантазии и психозы, а рекомендуется, наоборот, выпячивать их. Одна пациентка нянчится с куклой, другой пациент ходит в военной форме... С врачами у них отношения "на равных", особенно с главным врачом, который и придумал всё это. Но однажды такая терапия приводит к тому, что один пациент убивает врача. На его место приходит работать молодая девушка, которой приходится знакомиться с пациентами с нуля, так сказать...
В оригинале назывался The Forgotten, но больше известен именно как Don't Look in the Basement.

Качество: DVDRemux
Формат: MKV
Видео: 720x480 (4:3) @ 640x480, MPEG-2 Video / 5300 kbps / 29,970 fps /
Аудио 1: AC3, 48 kHz, 2ch, 192.00 kbps: [RUS]
Аудио 2: AC3, 48 kHz, 2ch, 192.00 kbps: [ENG]
Разбивка на главы: есть
Общее
Уникальный идентификатор : 29136320431984188735781745654271430187 (0x15EB7381C5C5FA26DE7FDB826129CE2B)
Полное имя : D:\Ремуксы\[AORE] Cult Films Remuxes\Don't Look In The Basement (1973)\Don't Look In The Basement.mkv
Формат : Matroska
Версия формата : Version 4
Размер файла : 3,55 Гбайт
Продолжительность : 1 ч. 29 м.
Режим общего битрейта : Постоянный
Общий поток : 5687 Кбит/сек
Дата кодирования : UTC 2019-03-01 16:38:22
Программа кодирования : mkvmerge v28.2.0 ('The Awakening') 64-bit
Библиотека кодирования : libebml v1.3.6 + libmatroska v1.4.9

Видео
Идентификатор : 1
Формат : MPEG Video
Версия формата : Version 2
Профиль формата : Main@Main
Настройки формата : BVOP
Параметр BVOP формата : Да
Параметр матрицы формата : По умолчанию
Параметр GOP формата : M=2, N=16
Структура изображения : Frame
Идентификатор кодека : V_MPEG2
Идентификатор кодека/Информация : MPEG 1 or 2 Video
Продолжительность : 1 ч. 29 м.
Вид битрейта : Постоянный
Битрейт : 5300 Кбит/сек
Ширина : 720 пикселей
Высота : 480 пикселей
Соотношение сторон : 4:3
Режим частоты кадров : Постоянный
Частота кадров : 29,970 (30000/1001) кадров/сек
Стандарт вещания : NTSC
Цветовое пространство : YUV
Субдискретизация насыщенности : 4:2:0
Битовая глубина : 8 бит
Тип развёртки : Чересстрочная
Порядок развёртки : Верхнее поле первое
Метод сжатия : С потерями
Бит/(Пиксели*Кадры) : 0.512
Временной код первого кадра : 01:00:00:00
Оригинал временного кода : Group of pictures header
GOP, открыто/закрыто : Закрыто
Размер потока : 3,31 Гбайт (93%)
Язык : English
Default : Нет
Forced : Нет

Аудио #1
Идентификатор : 2
Формат : AC-3
Формат/Информация : Audio Coding 3
Коммерческое название : Dolby Digital
Идентификатор кодека : A_AC3
Продолжительность : 1 ч. 29 м.
Вид битрейта : Постоянный
Битрейт : 192 Кбит/сек
Каналы : 2 канала
Channel layout : L R
Частота : 48,0 КГц
Частота кадров : 31,250 кадров/сек (1536 SPF)
Битовая глубина : 16 бит
Метод сжатия : С потерями
Размер потока : 123 Мбайт (3%)
Заголовок : MVO
Язык : Russian
ServiceKind/String : Complete Main
Default : Да
Forced : Нет

Аудио #2
Идентификатор : 3
Формат : AC-3
Формат/Информация : Audio Coding 3
Коммерческое название : Dolby Digital
Идентификатор кодека : A_AC3
Продолжительность : 1 ч. 29 м.
Вид битрейта : Постоянный
Битрейт : 192 Кбит/сек
Каналы : 2 канала
Channel layout : L R
Частота : 48,0 КГц
Частота кадров : 31,250 кадров/сек (1536 SPF)
Битовая глубина : 16 бит
Метод сжатия : С потерями
Размер потока : 123 Мбайт (3%)
Язык : English
ServiceKind/String : Complete Main
Default : Нет
Forced : Нет

Меню
00:00:00.033 : en:Chapter 01
00:16:33.559 : en:Chapter 02
00:30:56.821 : en:Chapter 03
00:46:58.315 : en:Chapter 04
00:58:17.393 : en:Chapter 05
01:09:32.201 : en:Chapter 06
скриншот  скриншот  скриншот  
pb.wtf



Скачать Не заглядывайте в подвал через торрент https://b.radikal.ru/b41/1903/32/30cd21f1ce54.jpg Скачать фильм Не заглядывайте в подвал через торрент бесплантно в хорошем качестве Описание: Любители фильмов про психиатрические клиники не должны пропускать этот замечательный фильм. Несмотря на то, что он условно ... 5 10 1
Торрент: Зарегистрирован [2019-07-08 16:31] · скачан: 1 раз
Статус: √ проверено
Размер: 3.55 GB
Как cкачать? Как скачать Не заглядывайте в подвал через торрент | qTorrent

28-11-2019 20:33  

Отключить всю рекламу на сайте

    Дорогой пользователь! Огромная просьба, поблагодарите релизера, оцените раздачу и оставьте свои комментарий, если Вы скачали Не заглядывайте в подвал через торрент бесплатно! Внесите свою лепту в развитие PiratBit!
    Комментировать посты могут только пользователи прошедшие не сложную регистрацию
    Показать сообщения:    

    Не заглядывайте в подвал через торрент
    Скачать бесплатно Не заглядывайте в подвал
    Не заглядывайте в подвал скачать торрент
    Не заглядывайте в подвал смотреть онлайн
    Cкачать фильм Не заглядывайте в подвал бесплатно
    Не заглядывайте в подвал скачать торрент в хорошем качестве
    Не заглядывайте в подвал смотреть онлайн бесплатно в хорошем качестве


    Вы не можете начинать темы
    Вы не можете отвечать на сообщения
    Вы не можете редактировать свои сообщения
    Вы не можете удалять свои сообщения
    Вы не можете голосовать в опросах
    Вы не можете прикреплять файлы к сообщениям
    Вы можете скачивать файлы