1 сезон

3 сезон

iTunes

1

iTunes

MVO

iTunes

13

1 сезон

RePack

30

Deluxe

pack

Лицензия

ВАЖНО

ИГРА 18+

pack

RePack

MK11

RePack

jed

RePack

fifa19

RePack

RDR2

RePack

NEED FOR SPEED™ PAYBACK

4 сезон

9 сезон

Бесстыжие 9 сезон

Все сериалы

все сериалы на PB.wtf

RePack

FAR CRY 5

Anonymous, добрый вечер, мы катастрофически не успеваем собрать деньги на оплату серверов, помогите нам пожалуйста 5,10,15р., для нас важна любая помощь . В качестве благодарности мы отключим Вам всю рекламу на сайте (укажите свой ник в строку Ваше имя)!

×
  
Magnet ссылка

Украсть «Голландца» / Rembrandt (Янник Йохансен / Jannik Johansen) [2003, Боевик, криминал, триллер, DVDRemux] [MVO] pb.wtf

Украсть «Голландца» через торрент pb.wtf

Размер: 4.54 GB | Добавлен: 2 года назад | Торрент скачан:7 раз
Скачать  

08-07-2019 17:13 Украсть «Голландца» Скачать торрент  

Украсть «Голландца»
Rembrandt
Страна: Дания
Жанр: боевик, криминал, триллер
Год выпуска: 2003
Продолжительность: 01:43:28
Перевод: профессиональный (многоголосый закадровый)

Субтитры: датские, финские, норвежские, шведские, английские
Режиссёр: Янник Йохансен / Jannik Johansen

В ролях: Якоб Седергрен, Николай Костер-Валдау, Соня Рихтер, Сорен Пильмарк, Гордон Кеннеди, Томас В. Габриэльссон
Описание: Мик и его сыновья Том и Кеннет - потомственная династия мелких преступников. Но сейчас им предстоит куда более важное дело. Их попросили украсть картину из музея. Операция прошла успешно, только вот украли они не совсем то, что нужно. В их руках оказалась уникальная вещь - единственная в Дании картина Рембрандта стоимостью в 15 миллионов долларов, которую совершенно невозможно продать. Что же делать несчастным грабителям, которых преследуют Интерпол, датская полиция и весь криминальный мир?

Качество: DVDRemux
Формат: MKV
Видео: 720x576 (16:9) @ 1024x576, MPEG-2 Video / 4942 kbps / 25,000 fps /
Аудио 1: AC3, 48 kHz, 6ch, 384.00 kbps: [RUS]
Аудио 2: DTS, 48 kHz, 6ch, 755.00 kbps: [DAN]
Аудио 3: AC3, 48 kHz, 2ch, 192.00 kbps: [Commentary]
Разбивка на главы: да
Формат субтитров: srt и оригинал
Общее
Уникальный идентификатор : 15700216738070405598190996258800535185 (0xBCFC07302B4604BFC0AF744EBF40691)
Полное имя : D:\Ремуксы\[AORE] Cult Films Remuxes\Rembrandt 2003\Rembrandt 2003.mkv
Формат : Matroska
Версия формата : Version 4
Размер файла : 4,54 Гбайт
Продолжительность : 1 ч. 43 м.
Режим общего битрейта : Переменный
Общий поток : 6285 Кбит/сек
Дата кодирования : UTC 2019-05-05 09:37:05
Программа кодирования : mkvmerge v33.1.0 ('Primrose') 64-bit
Библиотека кодирования : libebml v1.3.7 + libmatroska v1.5.0

Видео
Идентификатор : 1
Формат : MPEG Video
Версия формата : Version 2
Профиль формата : Main@Main
Настройки формата : CustomMatrix / BVOP
Параметр BVOP формата : Да
Параметр матрицы формата : Выборочная
Параметр GOP формата : M=3, N=12
Структура изображения : Frame
Идентификатор кодека : V_MPEG2
Идентификатор кодека/Информация : MPEG 1 or 2 Video
Продолжительность : 1 ч. 43 м.
Вид битрейта : Переменный
Битрейт : 4942 Кбит/сек
Максимальный битрейт : 8405 Кбит/сек
Ширина : 720 пикселей
Высота : 576 пикселей
Соотношение сторон : 16:9
Режим частоты кадров : Постоянный
Частота кадров : 25,000 кадров/сек
Стандарт вещания : PAL
Цветовое пространство : YUV
Субдискретизация насыщенности : 4:2:0
Битовая глубина : 8 бит
Тип развёртки : Чересстрочная
Порядок развёртки : Верхнее поле первое
Метод сжатия : С потерями
Бит/(Пиксели*Кадры) : 0.477
Временной код первого кадра : 00:02:00:00
Оригинал временного кода : Group of pictures header
GOP, открыто/закрыто : Закрыто
Размер потока : 3,57 Гбайт (79%)
Язык : English
Default : Нет
Forced : Нет

Аудио #1
Идентификатор : 2
Формат : AC-3
Формат/Информация : Audio Coding 3
Коммерческое название : Dolby Digital
Идентификатор кодека : A_AC3
Продолжительность : 1 ч. 43 м.
Вид битрейта : Постоянный
Битрейт : 384 Кбит/сек
Каналы : 6 каналов
Channel layout : L R C LFE Ls Rs
Частота : 48,0 КГц
Частота кадров : 31,250 кадров/сек (1536 SPF)
Битовая глубина : 16 бит
Метод сжатия : С потерями
Размер потока : 284 Мбайт (6%)
Заголовок : MVO
Язык : Russian
ServiceKind/String : Complete Main
Default : Да
Forced : Нет

Аудио #2
Идентификатор : 3
Формат : DTS
Формат/Информация : Digital Theater Systems
Идентификатор кодека : A_DTS
Продолжительность : 1 ч. 43 м.
Вид битрейта : Постоянный
Битрейт : 755 Кбит/сек
Каналы : 6 каналов
Channel layout : C L R Ls Rs LFE
Частота : 48,0 КГц
Частота кадров : 93,750 кадра/сек (512 SPF)
Битовая глубина : 16 бит
Метод сжатия : С потерями
Размер потока : 558 Мбайт (12%)
Заголовок : Surround 5.1
Язык : Danish
Default : Нет
Forced : Нет

Аудио #3
Идентификатор : 4
Формат : AC-3
Формат/Информация : Audio Coding 3
Коммерческое название : Dolby Digital
Идентификатор кодека : A_AC3
Продолжительность : 1 ч. 43 м.
Вид битрейта : Постоянный
Битрейт : 192 Кбит/сек
Каналы : 2 канала
Channel layout : L R
Частота : 48,0 КГц
Частота кадров : 31,250 кадров/сек (1536 SPF)
Битовая глубина : 16 бит
Метод сжатия : С потерями
Размер потока : 142 Мбайт (3%)
Заголовок : Commentary
Язык : Danish
ServiceKind/String : Complete Main
Default : Нет
Forced : Нет

Текст #1
Идентификатор : 5
Формат : VobSub
Режим смешивания : zlib
Идентификатор кодека : S_VOBSUB
Идентификатор кодека/Информация : Picture based subtitle format used on DVDs
Продолжительность : 1 ч. 37 м.
Битрейт : 5412 бит/сек
ElementCount : 883
Размер потока : 3,79 Мбайт (0%)
Язык : Danish
Default : Нет
Forced : Нет

Текст #2
Идентификатор : 6
Формат : VobSub
Режим смешивания : zlib
Идентификатор кодека : S_VOBSUB
Идентификатор кодека/Информация : Picture based subtitle format used on DVDs
Продолжительность : 1 ч. 41 м.
Битрейт : 5057 бит/сек
ElementCount : 881
Размер потока : 3,66 Мбайт (0%)
Язык : Finnish
Default : Нет
Forced : Нет

Текст #3
Идентификатор : 7
Формат : VobSub
Режим смешивания : zlib
Идентификатор кодека : S_VOBSUB
Идентификатор кодека/Информация : Picture based subtitle format used on DVDs
Продолжительность : 1 ч. 37 м.
Битрейт : 5101 бит/сек
ElementCount : 877
Размер потока : 3,57 Мбайт (0%)
Язык : Norwegian
Default : Нет
Forced : Нет

Текст #4
Идентификатор : 8
Формат : VobSub
Режим смешивания : zlib
Идентификатор кодека : S_VOBSUB
Идентификатор кодека/Информация : Picture based subtitle format used on DVDs
Продолжительность : 1 ч. 37 м.
Битрейт : 4967 бит/сек
ElementCount : 878
Размер потока : 3,48 Мбайт (0%)
Язык : Swedish
Default : Нет
Forced : Нет

Текст #5
Идентификатор : 9
Формат : VobSub
Режим смешивания : zlib
Идентификатор кодека : S_VOBSUB
Идентификатор кодека/Информация : Picture based subtitle format used on DVDs
Продолжительность : 1 ч. 37 м.
Битрейт : 4649 бит/сек
ElementCount : 862
Размер потока : 3,23 Мбайт (0%)
Язык : English
Default : Нет
Forced : Нет

Текст #6
Идентификатор : 10
Формат : UTF-8
Идентификатор кодека : S_TEXT/UTF8
Идентификатор кодека/Информация : UTF-8 Plain Text
Продолжительность : 1 ч. 37 м.
Битрейт : 43 бит/сек
ElementCount : 862
Размер потока : 30,7 Кбайт (0%)
Язык : English
Default : Нет
Forced : Нет

Меню
00:00:00.000 : en:Chapter 01
00:07:39.120 : en:Chapter 02
00:15:51.920 : en:Chapter 03
00:25:39.760 : en:Chapter 04
00:33:41.960 : en:Chapter 05
00:43:08.000 : en:Chapter 06
00:52:33.920 : en:Chapter 07
01:04:26.080 : en:Chapter 08
01:11:10.120 : en:Chapter 09
01:20:00.120 : en:Chapter 10
01:29:08.800 : en:Chapter 11
01:39:54.600 : en:Chapter 12
скриншот  скриншот  скриншот  
скриншот  скриншот  скриншот  
pb.wtf



Скачать Украсть «Голландца» через торрент https://a.radikal.ru/a39/1905/a7/1f293308c1b7.jpg Скачать фильм Украсть «Голландца» через торрент бесплантно в хорошем качестве Описание: Мик и его сыновья Том и Кеннет - потомственная династия мелких преступников. Но сейчас им предстоит куда более важное дело. Их ... 5 10 1
Торрент: Зарегистрирован [2019-07-08 17:13] · скачан: 7 раз
Статус: √ проверено
Размер: 4.54 GB
Как cкачать? Как скачать Украсть «Голландца» через торрент | UTorrent

28-11-2019 20:33  

Отключить всю рекламу на сайте

    Дорогой пользователь! Огромная просьба, поблагодарите релизера, оцените раздачу и оставьте свои комментарий, если Вы скачали Украсть «Голландца» через торрент бесплатно! Внесите свою лепту в развитие PiratBit!
    Комментировать посты могут только пользователи прошедшие не сложную регистрацию
    Показать сообщения:    

    Украсть «Голландца» через торрент
    Скачать бесплатно Украсть «Голландца»
    Украсть «Голландца» скачать торрент
    Украсть «Голландца» смотреть онлайн
    Cкачать фильм Украсть «Голландца» бесплатно
    Украсть «Голландца» скачать торрент в хорошем качестве
    Украсть «Голландца» смотреть онлайн бесплатно в хорошем качестве


    Вы не можете начинать темы
    Вы не можете отвечать на сообщения
    Вы не можете редактировать свои сообщения
    Вы не можете удалять свои сообщения
    Вы не можете голосовать в опросах
    Вы не можете прикреплять файлы к сообщениям
    Вы можете скачивать файлы