новый адрес
Ссылка на приватное зеркало всего за 1$. Внимание количество ограничено!!!

iTunes

1+1

iTunes

мы

WEB-DL

1

iTunes

Чернобыль

iTunes

Ральф против интернета

Лицензия

ПШазам

Лицензия

Оно 2

Лицензия

30
pack

Вам бонус

ВАЖНО

!!Акция!!

Alien_RageХит недели

RePack

Resident Evil 21

ИГРА 18+

pack

RePack

jed

!!Акция!!

Alien_Rage

RePack

fifa19

RePack

Assassins Creed: Odyssey

RePack

NEED FOR SPEED™ PAYBACK

3 сезон

9 сезон

Бесстыжие 9 сезон

Все сериалы

все сериалы на PB.wtf

RePack

FAR CRY 5
Ребята, катастрофически не хватает 1900р. для оплаты серверов за Октябрь (всвязи с блокировками трафик упал в 3 раза), 1-2р., выручайте.
  

За мечтой / Teen Spirit (Макс Мингелла) [2018 г.,(Amazon) драма, музыка, WEB-DLRip, Дубляж "iTunes"] pb.wtf

За мечтой через торрент pb.wtf

Раздают: 3 [ 0 KB/s ]
Размер: 705 MB | Добавлен: 4 мес. 29 д. назад | Торрент скачан:25 раз
Скачать  

08-07-2019 18:34 За мечтой Скачать торрент  

За мечтой / Teen Spirit
Год выпуска: 2018
Страна: Великобритания, США / Automatik, Aperture Media Partners, Blank Tape
Жанр: драма, музыка
Продолжительность: 01:33:29
Перевод: Дубляж (iTunes)

Режиссер: Макс Мингелла

rating

В ролях: Эль Фаннинг, Агнешка Гроховска, Арчи Мадекве, Златко Бурич, Милли Брэйди, Вивиан Опара, Риа Змитрович, Олив Грэй, Эндрю Эллис, Чарли Мэйхью

Описание: Вайолет выросла в маленьком городке и всегда мечтала о славе. Участие в национальном конкурсе - это шанс добиться всего. Как справиться с неуверенностью, страхом и победить?

Доп. информация: Имеются вставки английской речи

Качество: WEB-DLRip
Формат: AVI
Видео кодек: XviD
Аудио кодек: MP3
Видео: 640x272 (2.35:1), 23.976 fps, XviD build 50 ~916 kbps avg, 0.22 bit/pixe
Аудио: 48 kHz, MPEG Layer 3, 2 ch, ~128.00 kbps avg
скриншот   скриншот   скриншот   скриншот   скриншот   скриншот   скриншот   скриншот  

Общее
Полное имя : F:\ФИЛЬМЫ\За мечтой.2018.D.WEB-DLRip.AMAZON.avi
Формат : AVI
Формат/Информация : Audio Video Interleave
Размер файла : 705 Мбайт
Продолжительность : 1 ч. 33 м.
Общий поток : 1054 Кбит/сек
Программа кодирования : VirtualDubMod 1.5.10.3 | www.virtualdub-fr.org || (build 2550/release)
Библиотека кодирования : VirtualDubMod build 2550/release

Видео
Идентификатор : 0
Формат : MPEG-4 Visual
Профиль формата : Advanced Simple@L5
Настройки формата : BVOP3 / GMC3 / QPel
Параметр BVOP формата : 3
Параметр QPel формата : Да
Параметр GMC формата : 3 точки перехода
Параметр матрицы формата : Default (MPEG)
Идентификатор кодека : XVID
Идентификатор кодека/Подсказка : XviD
Продолжительность : 1 ч. 33 м.
Битрейт : 917 Кбит/сек
Ширина : 640 пикселей
Высота : 272 пикселя
Соотношение сторон : 2,35:1
Частота кадров : 23,976 (24000/1001) кадра/сек
Цветовое пространство : YUV
Субдискретизация насыщенности : 4:2:0
Битовая глубина : 8 бит
Тип развёртки : Прогрессивная
Метод сжатия : С потерями
Бит/(Пиксели*Кадры) : 0.220
Размер потока : 613 Мбайт (87%)
Библиотека кодирования : XviD 1.2.1 (UTC 2008-12-04)

Аудио
Идентификатор : 1
Формат : MPEG Audio
Версия формата : Version 1
Профиль формата : Layer 3
Настройки формата : Joint stereo / MS Stereo
Идентификатор кодека : 55
Идентификатор кодека/Подсказка : MP3
Продолжительность : 1 ч. 33 м.
Вид битрейта : Постоянный
Битрейт : 128 Кбит/сек
Каналы : 2 канала
Частота : 48,0 КГц
Частота кадров : 41,667 кадра/сек (1152 SPF)
Метод сжатия : С потерями
Размер потока : 85,6 Мбайт (12%)
Выравнивание : Соединение по промежуткам
Продолжительность промежутка : 42 мс. (1,00 видеокадр)
Время предзагрузки промежутка : 504 мс.
Библиотека кодирования : LAME3.99r
Настройки программы : -m j -V 4 -q 2 -lowpass 17 -b 128

pb.wtf



Скачать За мечтой через торрент http://pic1.kartinco.top/images/12/iazxg.jpg Скачать фильм За мечтой через торрент бесплантно в хорошем качестве Описание: Вайолет выросла в маленьком городке и всегда мечтала о славе. Участие в национальном конкурсе - это шанс добиться всего. Как ... 10 10 1
Торрент: Зарегистрирован [2019-07-08 18:34] · скачан: 25 раз
Статус: √ проверено
Размер: 705 MB
Как cкачать? Как скачать За мечтой через торрент | qTorrent

28-11-2019 20:33  

Отключить всю рекламу на сайте

    Дорогой пользователь! Огромная просьба, поблагодарите релизера, оцените раздачу и оставьте свои комментарий, если Вы скачали За мечтой через торрент бесплатно! Внесите свою лепту в развитие PiratBit!
    Комментировать посты могут только пользователи прошедшие не сложную регистрацию
    Показать сообщения:    

    За мечтой через торрент
    Скачать бесплатно За мечтой
    За мечтой скачать торрент
    За мечтой смотреть онлайн
    Cкачать фильм За мечтой бесплатно
    За мечтой скачать торрент в хорошем качестве
    За мечтой смотреть онлайн бесплатно в хорошем качестве


    Вы не можете начинать темы
    Вы не можете отвечать на сообщения
    Вы не можете редактировать свои сообщения
    Вы не можете удалять свои сообщения
    Вы не можете голосовать в опросах
    Вы не можете прикреплять файлы к сообщениям
    Вы можете скачивать файлы