Ссылка на приватное зеркало нашего сайта всего за 1$. Внимание количество ограничено!!!

2 сезон

iTunes

1 сезон

1

2 сезон

2 сезон

iTunes

1 сезон

RePack

30

Ultimate

ВАЖНО

ИГРА 18+

pack

RePack

MK11
pack

Забери бонус

RePack

jed

!!Акция!!

Alien_Rage

RePack

fifa19

RePack

Assassins Creed: Odyssey

RePack

NEED FOR SPEED™ PAYBACK

4 сезон

9 сезон

Бесстыжие 9 сезон

Все сериалы

все сериалы на PB.wtf

RePack

FAR CRY 5
  

Прорыв / Breakthrough (Роксанн Доусон) [2019, Драма, биография, WEB-DL 1080p] MVO (rus, ukr) [iTunes] pb.wtf

Прорыв через торрент pb.wtf

Размер: 4.41 GB | Добавлен: 1 год 4 мес. назад | Торрент скачан:52 раза
Скачать  

08-07-2019 19:58 Прорыв Скачать торрент  

Прорыв / Breakthrough
Год выпуска: 2019
Страна: США
Жанр: Драма, биография
Продолжительность: 01:56:25
Перевод: Профессиональный многоголосый | iTunes
Субтитры: Русские (Forced, full), украинские (Forced, full), английские

Режиссер: Роксанн Доусон

rating

В ролях: Тофер Грэйс, Крисси Мец, Марсель Руис, Джош Лукас, Дэннис Хэйсбёрт, Майк Колтер, Ребекка Стааб, Сэм Трэммелл, Алиса Сковбай, Лиза Дурупт

Описание: История чудесного спасения 14-летнего Джона, который провалился под лёд озера в Миссури. Когда мальчика доставили в больницу, он более часа не подавал признаков жизни. Его мать Джойс, не смирившись с потерей сына, призвала на помощь всю свою любовь и веру.

Качество: WEB-DL 1080p
Формат: MKV

Видео: MPEG-4 AVC, 1920x802, 4526 Kbit/s, 23.976 fps
Аудио#1: 48 kHz, AC3, 5.1, 384 Kbps | iTunes | RUS |
Аудио#2: 48 kHz, AAC, 5.1, 125 Kbps | iTunes | UKR |
Аудио#3: 48 kHz, AC3, 5.1, 384 Kbps | Оригинал | ENG |
скриншот  скриншот  скриншот  скриншот  скриншот  

General
Unique ID : 170608943662562816354199680224112624547 (0x805A165BC87FB3085BADACAB532F43A3)
Complete name : D:Video111Breakthrough.2019.WEB-DL.1080p.seleZen.mkv
Format : Matroska
Format version : Version 4
File size : 4.41 GiB
Duration : 1 h 56 min
Overall bit rate : 5 422 kb/s
Movie name : Breakthrough 2019 from селезень
Encoded date : UTC 2019-07-04 20:38:02
Writing application : mkvmerge v35.0.0 ('All The Love In The World') 64-bit
Writing library : libebml v1.3.9 + libmatroska v1.5.2

Video
ID : 1
Format : AVC
Format/Info : Advanced Video Codec
Format profile : High@L4
Format settings : CABAC / 5 Ref Frames
Format settings, CABAC : Yes
Format settings, Reference : 5 frames
Codec ID : V_MPEG4/ISO/AVC
Duration : 1 h 56 min
Bit rate : 4 526 kb/s
Width : 1 920 pixels
Height : 802 pixels
Display aspect ratio : 2.40:1
Frame rate mode : Constant
Frame rate : 23.976 FPS
Color space : YUV
Chroma subsampling : 4:2:0
Bit depth : 8 bits
Scan type : Progressive
Bits/(Pixel*Frame) : 0.123
Stream size : 3.68 GiB (83%)
Language : English
Default : Yes
Forced : No
Color range : Limited
Color primaries : BT.709
Transfer characteristics : BT.709
Matrix coefficients : BT.709

Audio #1
ID : 2
Format : AC-3
Format/Info : Audio Coding 3
Commercial name : Dolby Digital
Codec ID : A_AC3
Duration : 1 h 56 min
Bit rate mode : Constant
Bit rate : 384 kb/s
Channel(s) : 6 channels
Channel layout : L R C LFE Ls Rs
Sampling rate : 48.0 kHz
Frame rate : 31.250 FPS (1536 SPF)
Bit depth : 16 bits
Compression mode : Lossy
Stream size : 319 MiB (7%)
Title : iTunes
Language : Russian
Service kind : Complete Main
Default : Yes
Forced : Yes

Audio #2
ID : 3
Format : AAC LC
Format/Info : Advanced Audio Codec Low Complexity
Codec ID : A_AAC-2
Duration : 1 h 56 min
Bit rate : 125 kb/s
Channel(s) : 2 channels
Channel layout : L R
Sampling rate : 48.0 kHz
Frame rate : 46.875 FPS (1024 SPF)
Compression mode : Lossy
Stream size : 104 MiB (2%)
Title : iTunes
Language : Ukrainian
Default : No
Forced : No

Audio #3
ID : 4
Format : AC-3
Format/Info : Audio Coding 3
Commercial name : Dolby Digital
Codec ID : A_AC3
Duration : 1 h 56 min
Bit rate mode : Constant
Bit rate : 384 kb/s
Channel(s) : 6 channels
Channel layout : L R C LFE Ls Rs
Sampling rate : 48.0 kHz
Frame rate : 31.250 FPS (1536 SPF)
Bit depth : 16 bits
Compression mode : Lossy
Stream size : 319 MiB (7%)
Title : Original
Language : English
Service kind : Complete Main
Default : No
Forced : No

Text #1
ID : 5
Format : UTF-8
Codec ID : S_TEXT/UTF8
Codec ID/Info : UTF-8 Plain Text
Duration : 1 h 17 min
Bit rate : 0 b/s
Count of elements : 5
Stream size : 185 Bytes (0%)
Title : Forced
Language : Russian
Default : Yes
Forced : Yes

Text #2
ID : 6
Format : UTF-8
Codec ID : S_TEXT/UTF8
Codec ID/Info : UTF-8 Plain Text
Duration : 1 h 55 min
Bit rate : 81 b/s
Count of elements : 1613
Stream size : 68.8 KiB (0%)
Title : Full
Language : Russian
Default : No
Forced : No

Text #3
ID : 7
Format : UTF-8
Codec ID : S_TEXT/UTF8
Codec ID/Info : UTF-8 Plain Text
Duration : 1 h 55 min
Bit rate : 4 b/s
Count of elements : 92
Stream size : 4.17 KiB (0%)
Title : Forced
Language : Ukrainian
Default : No
Forced : No

Text #4
ID : 8
Format : UTF-8
Codec ID : S_TEXT/UTF8
Codec ID/Info : UTF-8 Plain Text
Duration : 1 h 55 min
Bit rate : 87 b/s
Count of elements : 1689
Stream size : 74.1 KiB (0%)
Title : Full
Language : Ukrainian
Default : No
Forced : No

Text #5
ID : 9
Format : UTF-8
Codec ID : S_TEXT/UTF8
Codec ID/Info : UTF-8 Plain Text
Duration : 1 h 53 min
Bit rate : 60 b/s
Count of elements : 1656
Stream size : 50.5 KiB (0%)
Title : Full
Language : English
Default : No
Forced : No

Menu #1
00:00:00.000 : en:1
00:04:29.519 : en:2
00:08:12.533 : en:3
00:15:41.440 : en:4
00:22:07.367 : en:5
00:24:59.914 : en:6
00:30:03.634 : en:7
00:35:26.415 : en:8
00:40:45.400 : en:9
00:45:39.360 : en:10
00:49:40.976 : en:11
00:55:18.354 : en:12
00:59:48.624 : en:13
01:04:34.743 : en:14
01:08:44.284 : en:15
01:12:40.103 : en:16
01:18:37.042 : en:17
01:26:36.311 : en:18
01:31:12.920 : en:19
01:37:36.929 : en:20
01:41:48.639 : en:21
01:45:39.285 : en:22
01:48:00.843 : en:23
01:51:55.911 : en:24

pb.wtf



Скачать Прорыв через торрент https://a.radikal.ru/a15/1907/04/8e23d2a1e73f.jpg Скачать фильм Прорыв через торрент бесплантно в хорошем качестве Описание: История чудесного спасения 14-летнего Джона, который провалился под лёд озера в Миссури. Когда мальчика доставили в больницу, он ... 10 10 5
Торрент: Зарегистрирован [2019-07-08 19:58] · скачан: 52 раз
Статус: √ проверено
Размер: 4.41 GB
Как cкачать? Как скачать Прорыв через торрент | qTorrent

% Раздел Тема Автор DL S | L
Фильмы 2019-2020 [DVDrip, WEB-DLRip, HDrip] (DUB, MVO) [ 1.41 GB ] Прорыв / Breakthrough [2019 биография BDRip] MVO Twi7ter Скачать
13 | 1
Фильмы (Blu-ray, BD-Remux, HDDVD) [ 26.45 GB ] Прорыв / Breakthrough [2019 биография BD Remux 1080p] MVO bober100 Скачать
1 | 0
Ultra HD (UHD: 2K, 4K, 8K) — видео сверхвысокой чёткости [ 49.69 GB ] Прорыв / Breakthrough [2019 биография UHD BDRemux 2160p] MVO sheker187 Скачать
1 | 0
Фильмы 2019-2020 [DVDrip, WEB-DLRip, HDrip] (DUB, MVO) [ 2.13 GB ] Прорыв / Breakthrough [2019 биография BDRip-AVC] MVO bober100 Скачать
1 | 0
Ultra HD (UHD: 2K, 4K, 8K) — видео сверхвысокой чёткости [ 13.64 GB ] Прорыв / Breakthrough [2019 биография UHD BDRip 2160p] MVO sheker187 Скачать
1 | 0
Фильмы [HD 720p, 1080p] (Хороший звук DUB, MVO) [ 9.2 GB ] Прорыв / Breakthrough [2019 биография BDRip 1080p] MVO bober100 Скачать
1 | 0
Фильмы [HD 720p, 1080p] (Хороший звук DUB, MVO) [ 4.17 GB ] Прорыв / Breakthrough [2019 биография BDRip 720p] MVO bober100 Скачать
1 | 0

28-11-2019 20:33  

Отключить всю рекламу на сайте

    Дорогой пользователь! Огромная просьба, поблагодарите релизера, оцените раздачу и оставьте свои комментарий, если Вы скачали Прорыв через торрент бесплатно! Внесите свою лепту в развитие PiratBit!
    Комментировать посты могут только пользователи прошедшие не сложную регистрацию
    Показать сообщения:    

    Прорыв через торрент
    Скачать бесплатно Прорыв
    Прорыв скачать торрент
    Прорыв смотреть онлайн
    Cкачать фильм Прорыв бесплатно
    Прорыв скачать торрент в хорошем качестве
    Прорыв смотреть онлайн бесплатно в хорошем качестве


    Вы не можете начинать темы
    Вы не можете отвечать на сообщения
    Вы не можете редактировать свои сообщения
    Вы не можете удалять свои сообщения
    Вы не можете голосовать в опросах
    Вы не можете прикреплять файлы к сообщениям
    Вы можете скачивать файлы