Ссылка на приватное зеркало нашего сайта всего за 1$. Внимание количество ограничено!!!

2 сезон

iTunes

1 сезон

1

iTunes

iTunes

iTunes

1 сезон

RePack

30

ИГРА 18+

pack

ВАЖНО

!!Акция!!

Alien_RageХит недели

RePack

MK11
pack

Забери бонус

RePack

jed

!!Акция!!

Alien_Rage

RePack

fifa19

RePack

Assassins Creed: Odyssey

RePack

NEED FOR SPEED™ PAYBACK

4 сезон

9 сезон

Бесстыжие 9 сезон

Все сериалы

все сериалы на PB.wtf

RePack

FAR CRY 5
  

Тайны госпожи Кирсановой / Сезон: 1 / Серии: 1-50 из 50 (Сергей Мезенцев, Виталий Бордачев) [2018, Детектив, история, HDTVRip 720p] pb.wtf

Тайны госпожи Кирсановой через торрент pb.wtf

Размер: 39.42 GB | Добавлен: 1 год 3 мес. назад | Торрент скачан:7 раз
Скачать  

08-07-2019 20:58 Тайны госпожи Кирсановой Скачать торрент  

Тайны госпожи Кирсановой Год выпуска: 2018
Страна: Россия
Жанр: Детектив, история
Продолжительность: ~ 01:35:00
Перевод: Не требуется
Субтитры: отсутствуют

Режиссер: Сергей Мезенцев, Виталий Бордачев



В ролях:

Ольга Лерман, Антон Батырев, Евгений Шириков, Ольга Плешкова, Евгения Симонова, Иван Шабалтас, Максим Битюков, Николай Денисов, Арсений Сергеев, Марина Мезенцева, Иван Рыжиков, Анна Соловейчик, Александр Бобров, Софья Зайка

Описание:

1878 год. В небольшой уездный город Богородск приезжает молодая учительница математики Лариса Дмитриевна Кирсанова. Госпожу Кирсанову привело сюда желание разыскать своего жениха – молодого дворянина Павла Бестужева, который таинственно исчез за день до венчания, не попрощавшись и не оставив даже письма. Павел родом из Богородска, в котором из родных осталась только старушка мать. Здесь же проживает и любимая тетка Ларисы – Лизавета Прокофьевна. Тем временем после окончания русско-турецкой войны с Балкан возвращаются участники боевых сражений. Город ликует, встречая героев!..

Качество: HDTVRip 720p
Формат: MKV

Видео: 1280x720 (16:9), 25.00 fps, AVC, Main@L3.1 ~2200 kbps avg, ~0.095 bit/pixel
Аудио: 44.1 kHz, ААС, 2 ch, ~192.00 kbps avg
скриншот  скриншот  скриншот  скриншот  скриншот  

Общее
Уникальный идентификатор : 79489250975549898900426619043939204580 (0x3BCD12A7ADB8B7D256D4BBD05E39BDE4)
Полное имя : F:\Тайны.госпожи.Кирсановой.AVC\s01e01-02.Штабс-капитан.AVC.720p.mkv
Формат : Matroska
Версия формата : Version 4
Размер файла : 1,59 Гбайт
Продолжительность : 1 ч. 34 м.
Общий поток : 2396 Кбит/сек
Дата кодирования : UTC 2019-07-06 05:00:33
Программа кодирования : mkvmerge v33.0.0 ('A Little Bit of Madness') 64-bit
Библиотека кодирования : libebml v1.3.7 + libmatroska v1.5.0

Видео
Идентификатор : 1
Формат : AVC
Формат/Информация : Advanced Video Codec
Профиль формата : Main@L3.1
Настройки формата : CABAC / 1 Ref Frames
Параметр CABAC формата : Да
Параметр RefFrames формата : 1 кадр
Параметр GOP формата : M=1, N=25
Идентификатор кодека : V_MPEG4/ISO/AVC
Продолжительность : 1 ч. 34 м.
Вид битрейта : Постоянный
Битрейт : 2200 Кбит/сек
Ширина : 1280 пикселей
Высота : 720 пикселей
Соотношение сторон : 16:9
Режим частоты кадров : Постоянный
Частота кадров : 25,000 кадров/сек
Цветовое пространство : YUV
Субдискретизация насыщенности : 4:2:0
Битовая глубина : 8 бит
Тип развёртки : Прогрессивная
Бит/(Пиксели*Кадры) : 0.095
Размер потока : 1,45 Гбайт (92%)
Default : Да
Forced : Нет

Аудио
Идентификатор : 2
Формат : AAC LC
Формат/Информация : Advanced Audio Codec Low Complexity
Идентификатор кодека : A_AAC-2
Продолжительность : 1 ч. 34 м.
Битрейт : 192 Кбит/сек
Каналы : 2 канала
Channel layout : L R
Частота : 44,1 КГц
Частота кадров : 43,066 кадра/сек (1024 SPF)
Метод сжатия : С потерями
Размер потока : 132 Мбайт (8%)
Язык : Russian
Default : Да
Forced : Нет

Меню
00:00:15.000 : :Серия 01
00:47:38.000 : :Серия 02

pb.wtf



Скачать Тайны госпожи Кирсановой через торрент http://img14.lostpic.net/2018/12/03/a4e59c713ffe238eb5d502e3314172d4.jpg Скачать фильм Тайны госпожи Кирсановой через торрент бесплантно в хорошем качестве Описание: 1878 год. В небольшой уездный город Богородск приезжает молодая учительница математики Лариса Дмитриевна Кирсанова. Госпожу ... 9.8 10 5
Торрент: Зарегистрирован [2019-07-08 20:58] · скачан: 7 раз
Статус: √ проверено
Размер: 39.42 GB
Как cкачать? Как скачать Тайны госпожи Кирсановой через торрент | qTorrent

% Раздел Тема Автор DL S | L
Наши сериалы [ 32.83 GB ] Тайны госпожи Кирсановой / Сезон: 1 / Серии: 1-50 из 50 [2018 история SATRip] bober100 Скачать
1 | 0
Наши сериалы [ 30.46 GB ] Тайны госпожи Кирсановой / Сезон: 1 / Серии: 1-50 из 50 [2018 WEBRip] bober100 Скачать
1 | 0

28-11-2019 20:33  

Отключить всю рекламу на сайте

    Дорогой пользователь! Огромная просьба, поблагодарите релизера, оцените раздачу и оставьте свои комментарий, если Вы скачали Тайны госпожи Кирсановой через торрент бесплатно! Внесите свою лепту в развитие PiratBit!
    Комментировать посты могут только пользователи прошедшие не сложную регистрацию
    Показать сообщения:    

    Тайны госпожи Кирсановой через торрент
    Скачать бесплатно Тайны госпожи Кирсановой
    Тайны госпожи Кирсановой скачать торрент
    Тайны госпожи Кирсановой смотреть онлайн
    Cкачать фильм Тайны госпожи Кирсановой бесплатно
    Тайны госпожи Кирсановой скачать торрент в хорошем качестве
    Тайны госпожи Кирсановой смотреть онлайн бесплатно в хорошем качестве


    Вы не можете начинать темы
    Вы не можете отвечать на сообщения
    Вы не можете редактировать свои сообщения
    Вы не можете удалять свои сообщения
    Вы не можете голосовать в опросах
    Вы не можете прикреплять файлы к сообщениям
    Вы можете скачивать файлы