2 сезон

iTunes

MVO

1

2 сезон

iTunes

iTunes

1 сезон

RePack

30

Ultimate

ВАЖНО

ИГРА 18+

pack

RePack

MK11
pack

Легкие деньги

RePack

jed

RePack

fifa19

RePack

RDR2

RePack

NEED FOR SPEED™ PAYBACK

4 сезон

9 сезон

Бесстыжие 9 сезон

Все сериалы

все сериалы на PB.wtf

RePack

FAR CRY 5

Anonymous, добрый вечер, мы не успеваем собрать деньги на оплату серверов за декабрь и январь, помогите нам пожалуйста в это трудное время. В качестве благодарности мы отключим Вам всю рекламу на сайте (укажите свой ник в строку Ваше имя)!

×
  
Magnet ссылка

Край света / Рубеж мира / Rim of the World (МакДжи) [2019, фантастика, боевик, комедия, UHD WEB-DL 2160p] [SDR] Дубляж [Пифагор] pb.wtf

Край света через торрент pb.wtf

Раздают: 1 [ 0 KB/s ]
Размер: 11.59 GB | Добавлен: 1 год 6 мес. назад | Торрент скачан:74 раза
Скачать  

09-07-2019 01:44 Край света Скачать торрент  

Край света / Рубеж мира / Rim of the World««Saving the World is Alien to Them»»

Год выпуска: 2019
Страна: США
Жанр: фантастика, боевик, комедия, приключения
Продолжительность: 01:39:08
Перевод: Дублированный | Пифагор
Субтитры: Русские (Forced, Full), английские (Forced, Full)
Режиссер: МакДжи
В ролях:

Джек Гор (Alex), Мия Чех (ZhenZhen), Бенжамин Флорес мл. (Dariush), Алессио Скальцотто (Gabriel), Эндрю Бэчелор (Logan), Аннабет Гиш (Grace), Скотт Макартур (Lou), Дин Джаггер III (Captain Hawking), Майкл Бич (General Khoury), Линн Коллинс (Major Collins), Дэвид Теюн (Head Counselor), Тони Кавалеро (Conrad)
Описание:
Мама с трудом вытаскивает из-за компьютера подростка Алекса, ботаника и всезнайку, чтобы отправить его в летний лагерь «Край света» завести друзей и набраться впечатлений. С летними развлечениями у парня как-то сразу не задаётся, ведь его больше интересуют новости о происходящем на международной космической станции. Когда весь лагерь приезжает к озеру, Алекс увязывается за решительной китаянкой Чжэньчжэнь, а за ними - и неугомонный чернокожий Дариуш. Не успевает троица толком познакомится с новым парнем Габриелем, как внезапно оказывается в эпицентре инопланетного вторжения.
Рейтинг:

Качество: UHD WEB-DL 2160p | SDR
Формат: MKV
Видео: HEVC, 15.3 Mбит/с, 3840x2160, 23.976 Кадр/с, 10 Бит
Аудио: E-AC3, 6 ch, 640 Kbps - Русский (Дубляж)| Пифагор
Аудио: E-AC3+Atmos, 6 ch, 768 Kbps - Английский (Оригинал)

Общее
Уникальный идентификатор : 220312876943382047743677785643130344738 (0xA5BEB778993291D6B90113A61540D522)
Полное имя : D:\Передел\Rim.of.the.World.2019.2160p.WEB-DL.x265.10bit.SDR.Master5.mkv
Формат : Matroska
Версия формата : Version 4
Размер файла : 11,6 Гбайт
Продолжительность : 1 ч. 39 м.
Общий поток : 16,7 Мбит/сек
Название фильма : Rim.of.the.World.2019.2160p.WEB-DL.x265.10bit.SDR.Master5
Дата кодирования : UTC 2019-07-08 18:37:27
Программа кодирования : mkvmerge v7.9.0 ('Birds') 64bit
Библиотека кодирования : libebml v1.3.1 + libmatroska v1.4.2

Видео
Идентификатор : 1
Формат : HEVC
Формат/Информация : High Efficiency Video Coding
Профиль формата : Main 10@L5@Main
Идентификатор кодека : V_MPEGH/ISO/HEVC
Продолжительность : 1 ч. 39 м.
Битрейт : 15,3 Мбит/сек
Ширина : 3840 пикселей
Высота : 2160 пикселей
Соотношение сторон : 16:9
Режим частоты кадров : Постоянный
Частота кадров : 23,976 (24000/1001) кадра/сек
Цветовое пространство : YUV
Субдискретизация насыщенности : 4:2:0
Битовая глубина : 10 бит
Бит/(Пиксели*Кадры) : 0.077
Размер потока : 10,6 Гбайт (92%)
Заголовок : Rim.of.the.World.2019.2160p.WEB-DL.x265.10bit.SDR.Master5
Язык : English
Default : Да
Forced : Нет
Цветовой диапазон : Limited
Основные цвета : BT.709
Характеристики трансфера : BT.709
Коэффициенты матрицы : BT.709

Аудио #1
Идентификатор : 2
Формат : E-AC-3
Формат/Информация : Enhanced AC-3
Коммерческое название : Dolby Digital Plus
Идентификатор кодека : A_EAC3
Продолжительность : 1 ч. 39 м.
Вид битрейта : Постоянный
Битрейт : 640 Кбит/сек
Каналы : 6 каналов
Channel layout : L R C LFE Ls Rs
Частота : 48,0 КГц
Частота кадров : 31,250 кадров/сек (1536 SPF)
Метод сжатия : С потерями
Размер потока : 454 Мбайт (4%)
Заголовок : Dub
Язык : Russian
ServiceKind/String : Complete Main
Default : Да
Forced : Нет

Аудио #2
Идентификатор : 3
Формат : E-AC-3 JOC
Формат/Информация : Enhanced AC-3 with Joint Object Coding
Коммерческое название : Dolby Digital Plus with Dolby Atmos
Идентификатор кодека : A_EAC3
Продолжительность : 1 ч. 39 м.
Вид битрейта : Постоянный
Битрейт : 768 Кбит/сек
Каналы : 6 каналов
Channel layout : L R C LFE Ls Rs
Частота : 48,0 КГц
Частота кадров : 31,250 кадров/сек (1536 SPF)
Метод сжатия : С потерями
Размер потока : 545 Мбайт (5%)
Заголовок : Original
Язык : English
ServiceKind/String : Complete Main
Default : Нет
Forced : Нет
Complexity index : 16
Number of dynamic objects : 15
Bed channel count : 1 канал
Bed channel configuration : LFE

Текст #1
Идентификатор : 4
Формат : UTF-8
Идентификатор кодека : S_TEXT/UTF8
Идентификатор кодека/Информация : UTF-8 Plain Text
Продолжительность : 1 ч. 38 м.
Битрейт : 2 бит/сек
ElementCount : 36
Размер потока : 1,45 Кбайт (0%)
Заголовок : Forced
Язык : Russian
Default : Да
Forced : Да

Текст #2
Идентификатор : 5
Формат : UTF-8
Идентификатор кодека : S_TEXT/UTF8
Идентификатор кодека/Информация : UTF-8 Plain Text
Продолжительность : 1 ч. 38 м.
Битрейт : 77 бит/сек
ElementCount : 1372
Размер потока : 55,6 Кбайт (0%)
Заголовок : Full
Язык : Russian
Default : Нет
Forced : Нет

Текст #3
Идентификатор : 6
Формат : UTF-8
Идентификатор кодека : S_TEXT/UTF8
Идентификатор кодека/Информация : UTF-8 Plain Text
Продолжительность : 1 ч. 4 м.
Битрейт : 0 бит/сек
ElementCount : 7
Размер потока : 239 байт (0%)
Заголовок : Forced
Язык : English
Default : Нет
Forced : Нет

Текст #4
Идентификатор : 7
Формат : UTF-8
Идентификатор кодека : S_TEXT/UTF8
Идентификатор кодека/Информация : UTF-8 Plain Text
Продолжительность : 1 ч. 31 м.
Битрейт : 75 бит/сек
ElementCount : 1741
Размер потока : 50,7 Кбайт (0%)
Заголовок : Full
Язык : English
Default : Нет
Forced : Нет
pb.wtf



Скачать Край света через торрент https://b.radikal.ru/b10/1907/10/165e2bf287ce.png Скачать фильм Край света через торрент бесплантно в хорошем качестве Описание: Мама с трудом вытаскивает из-за компьютера подростка Алекса, ботаника и всезнайку, чтобы отправить его в летний лагерь «Край ... 10 10 1
Торрент: Зарегистрирован [2019-07-09 01:44] · скачан: 74 раз
Статус: √ проверено
Размер: 11.59 GB
Как cкачать? Как скачать Край света через торрент | UTorrent

28-11-2019 20:33  

Отключить всю рекламу на сайте

    Дорогой пользователь! Огромная просьба, поблагодарите релизера, оцените раздачу и оставьте свои комментарий, если Вы скачали Край света через торрент бесплатно! Внесите свою лепту в развитие PiratBit!
    Комментировать посты могут только пользователи прошедшие не сложную регистрацию
    Показать сообщения:    

    Край света через торрент
    Скачать бесплатно Край света
    Край света скачать торрент
    Край света смотреть онлайн
    Cкачать фильм Край света бесплатно
    Край света скачать торрент в хорошем качестве
    Край света смотреть онлайн бесплатно в хорошем качестве


    Вы не можете начинать темы
    Вы не можете отвечать на сообщения
    Вы не можете редактировать свои сообщения
    Вы не можете удалять свои сообщения
    Вы не можете голосовать в опросах
    Вы не можете прикреплять файлы к сообщениям
    Вы можете скачивать файлы