новый адрес пиратбит piratbit
MEGA NEWS Получи личный уникальный адрес сайта и защити себя от блокировок. Внимание количество ограничено!!!

iTunes

1+1

iTunes

мы

iTunes

1

iTunes

Чернобыль

iTunes

Ральф против интернета

Лицензия

ПШазам

Лицензия

Игра престолов

Лицензия

30
pack

ВАЖНО

!!Акция!!

Alien_RageХит недели

RePack

Resident Evil 21

ИГРА 18+

pack

RePack

Metro:Exodus

!!Акция!!

Alien_Rage

RePack

fifa19

RePack

Assassins Creed: Odyssey

RePack

NEED FOR SPEED™ PAYBACK

3 сезон

9 сезон

Бесстыжие 9 сезон

Все сериалы

все сериалы на PB.wtf

RePack

FAR CRY 5
Ребята, катастрофически не хватает 1900р. для оплаты серверов за АВГУСТ (всвязи с блокировками трафик упал в 3 раза), 1-2р., выручайте.
  

Куда ушла любовь / Where Love Has Gone (Эдвард Дмитрик) [1964, драма, BDRip 720p by msltel] AVO pb.wtf

Куда ушла любовь через торрент pb.wtf

Размер: 4.53 GB | Добавлен: 3 мес. 13 д. назад | Торрент скачан:2 раза
Скачать  

09-07-2019 05:37 Куда ушла любовь Скачать торрент  

Название: Куда ушла любовь
Оригинальное название: Where Love Has Gone
Год выпуска: 1964
Страна: США
Жанр: драма
Продолжительность: 01:54:30
Перевод: авторский

Режиссер: Эдвард Дмитрик
В ролях: Сьюзен Хэйуорд, Бетт Дэвис, Майк Коннорс, Джоуи Хизертон, Джейн Грир, ДеФорест Келли, Джордж Макреди, Энн Сеймур, Уиллис Бучи, Уолтер Рид, Энн Доран, Бартлетт Робинсон, Уит Бисселл, Энтони Карузо, Джей Адлер, Джеймс Белл, Рой Гленн, Джек Грининг, Сэм Харрис

О фильме: Архитектор Люк Миллер, получив известие о страшной трагедии, случившейся в доме его бывшей жены Валери и их дочери Даниэль, возвращается в город, где прошли годы его брака, закончившегося горьким разводом. Теперь его дочь подозревается в убийстве любовника собственной матери. Перед мысленным взором Люка разворачивается панорама его жизни, и начинается она знакомством с Валери Хейден, талантливым скульптором, выросшей в условиях абсолютного диктата своей властной матери...



Качество: BDRip 720p
Формат: MKV
Видео: MPEG-4 AVC, 5282 Кбит/с, 1280x546, 23.976 Кадр/с
Аудио 1: русский, AC3, 192 kbps, 1 ch, 48 kHz [авторский, Юрий Сербин]
Аудио 2: английский, AC3, 192 kbps, 1 ch, 48 kHz [оригинал]
Главы/чаптеры
Общее
Уникальный идентификатор : 171280591356357862167074106307569384915 (0x80DB712581B4E9E8AFFBC53F0045FDD3)
Полное имя : D:\Video\Куда ушла любовь.1964.BDRip 720p by msltel.mkv
Формат : Matroska
Версия формата : Version 4
Размер файла : 4,53 Гбайт
Продолжительность : 1 ч. 54 м.
Общий поток : 5668 Кбит/сек
Название фильма : Rip by msltel
Дата кодирования : UTC 2019-07-09 01:39:19
Программа кодирования : mkvmerge v8.2.0 ('World of Adventure') 64bit
Библиотека кодирования : libebml v1.3.1 + libmatroska v1.4.2

Видео
Идентификатор : 1
Формат : AVC
Формат/Информация : Advanced Video Codec
Профиль формата : High@L4.1
Настройки формата : CABAC / 9 Ref Frames
Параметр CABAC формата : Да
Параметр RefFrames формата : 9 кадров
Идентификатор кодека : V_MPEG4/ISO/AVC
Продолжительность : 1 ч. 54 м.
Битрейт : 5282 Кбит/сек
Ширина : 1280 пикселей
Высота : 546 пикселей
Соотношение сторон : 2,35:1
Режим частоты кадров : Постоянный
Частота кадров : 23,976 (24000/1001) кадра/сек
Цветовое пространство : YUV
Субдискретизация насыщенности : 4:2:0
Битовая глубина : 8 бит
Тип развёртки : Прогрессивная
Бит/(Пиксели*Кадры) : 0.315
Размер потока : 4,22 Гбайт (93%)
Библиотека кодирования : x264 core 157 r2935 545de2f
Настройки программы : cabac=1 / ref=9 / deblock=1:-2:-2 / analyse=0x3:0x113 / me=umh / subme=11 / psy=1 / psy_rd=1.00:0.15 / mixed_ref=1 / me_range=32 / chroma_me=1 / trellis=2 / 8x8dct=1 / cqm=0 / deadzone=21,11 / fast_pskip=0 / chroma_qp_offset=-3 / threads=6 / lookahead_threads=1 / sliced_threads=0 / nr=0 / decimate=1 / interlaced=0 / bluray_compat=0 / constrained_intra=0 / bframes=13 / b_pyramid=2 / b_adapt=2 / b_bias=0 / direct=1 / weightb=1 / open_gop=0 / weightp=2 / keyint=230 / keyint_min=23 / scenecut=40 / intra_refresh=0 / rc_lookahead=40 / rc=crf / mbtree=1 / crf=18.4 / qcomp=0.60 / qpmin=0 / qpmax=69 / qpstep=4 / vbv_maxrate=50000 / vbv_bufsize=62500 / crf_max=0.0 / nal_hrd=none / filler=0 / ip_ratio=1.40 / aq=1:1.00
Язык : English
Default : Да
Forced : Нет

Аудио #1
Идентификатор : 2
Формат : AC-3
Формат/Информация : Audio Coding 3
Коммерческое название : Dolby Digital
Идентификатор кодека : A_AC3
Продолжительность : 1 ч. 54 м.
Вид битрейта : Постоянный
Битрейт : 192 Кбит/сек
Каналы : 1 канал
ChannelLayout : C
Частота : 48,0 КГц
Частота кадров : 31,250 кадров/сек (1536 SPF)
Битовая глубина : 16 бит
Метод сжатия : С потерями
Размер потока : 157 Мбайт (3%)
Заголовок : Юрий Сербин
Язык : Russian
ServiceKind/String : Complete Main
Default : Да
Forced : Нет

Аудио #2
Идентификатор : 3
Формат : AC-3
Формат/Информация : Audio Coding 3
Коммерческое название : Dolby Digital
Идентификатор кодека : A_AC3
Продолжительность : 1 ч. 54 м.
Вид битрейта : Постоянный
Битрейт : 192 Кбит/сек
Каналы : 1 канал
ChannelLayout : C
Частота : 48,0 КГц
Частота кадров : 31,250 кадров/сек (1536 SPF)
Битовая глубина : 16 бит
Метод сжатия : С потерями
Размер потока : 157 Мбайт (3%)
Заголовок : original
Язык : English
ServiceKind/String : Complete Main
Default : Нет
Forced : Нет

Меню
00:00:00.000 : :Chapter 1
00:12:25.161 : :Chapter 2
00:24:03.233 : :Chapter 3
00:36:04.745 : :Chapter 4
00:58:05.148 : :Chapter 5
01:20:47.050 : :Chapter 6
01:35:12.122 : :Chapter 7
01:41:10.397 : :Chapter 8
01:54:18.184 : :Chapter 9
pb.wtf



Скачать Куда ушла любовь через торрент https://d.radikal.ru/d04/1907/1b/cc1126c5772f.jpg Скачать фильм Куда ушла любовь через торрент бесплантно в хорошем качестве О фильме: Архитектор Люк Миллер, получив известие о страшной трагедии, случившейся в доме его бывшей жены Валери и их дочери Даниэль, ... 5 10 1
Торрент: Зарегистрирован [2019-07-09 05:37] · скачан: 2 раз
Статус: √ проверено
Размер: 4.53 GB
Как cкачать? Как скачать Куда ушла любовь через торрент | qTorrent

% Раздел Тема Автор DL S | L
Классика зарубежного кино [ 12.02 GB ] Куда ушла любовь / Where Love Has Gone [1964 BDRip 1080p by msltel] AVO msltel Скачать
1 | 0


>> Регистрируемся здесь <<






Отзывы и комментарии о схеме читаем и пишем здесь: ---> Отзывы и комментарии о схеме

Новые благодарочки в телеграм довольных пользователей:
скриншот   скриншот   скриншот   скриншот   скриншот

10-07-2019 09:49 Куда ушла любовь Скачать торрент  

Топик был перенесен из форума Фильмы с авторской озвучкой в форум Классика зарубежного кино


bober100pb.wtf



    Дорогой пользователь! Огромная просьба, поблагодарите релизера, оцените раздачу и оставьте свои комментарий, если Вы скачали Куда ушла любовь через торрент бесплатно! Внесите свою лепту в развитие PiratBit!
    Комментировать посты могут только пользователи прошедшие не сложную регистрацию
    Показать сообщения:    

    Куда ушла любовь через торрент
    Скачать бесплатно Куда ушла любовь
    Куда ушла любовь скачать торрент
    Куда ушла любовь смотреть онлайн
    Cкачать фильм Куда ушла любовь бесплатно
    Куда ушла любовь скачать торрент в хорошем качестве
    Куда ушла любовь смотреть онлайн бесплатно в хорошем качестве


    Вы не можете начинать темы
    Вы не можете отвечать на сообщения
    Вы не можете редактировать свои сообщения
    Вы не можете удалять свои сообщения
    Вы не можете голосовать в опросах
    Вы не можете прикреплять файлы к сообщениям
    Вы можете скачивать файлы