новый адрес пиратбит piratbit
Мега распродажа FORZA HORIZON 4 ULTIMATE+ВСЕ DLC+ОНЛАЙН всего за 499р. 349 руб. (супер цена). Внимание количество ограничено!!!

iTunes

1+1

iTunes

мы

iTunes

1

iTunes

Чернобыль

iTunes

Ральф против интернета

Лицензия

ПШазам

Лицензия

Игра престолов

Лицензия

30
pack

ВАЖНО

!!Акция!!

Alien_RageХит недели

RePack

Resident Evil 21

ИГРА 18+

pack

RePack

Metro:Exodus

!!Акция!!

Alien_Rage

RePack

fifa19

RePack

Assassins Creed: Odyssey

RePack

NEED FOR SPEED™ PAYBACK

3 сезон

9 сезон

Бесстыжие 9 сезон

Все сериалы

все сериалы на PB.wtf

RePack

FAR CRY 5
Ребята, катастрофически не хватает 1900р. для оплаты серверов за Октябрь (всвязи с блокировками трафик упал в 3 раза), 1-2р., выручайте.
  

Коллективный иск / Блестящий ход / Class action (Майкл Эптид / Michael Apted) [1991, Драма, BDRip 720p от KORSAR] [2xMVO, AVO (Гаврилов)] pb.wtf

Коллективный иск через торрент pb.wtf

Раздают: 1 [ 0 KB/s ]
Размер: 4.47 GB | Добавлен: 4 мес. 2 д. назад | Торрент скачан:13 раз
Скачать  

09-07-2019 07:36 Коллективный иск Скачать торрент  

Коллективный иск / Блестящий ход / Class action

Страна: США
Жанр: Драма
Год выпуска: 1991
Продолжительность: 01:49:39

Перевод: Профессиональный многоголосый, авторский
Субтитры: Английские, финские, испанские, итальянские
Режиссер: Майкл Эптид / Michael Apted

В ролях: Джин Хэкман /Gene Hackman/, Мэри Элизабет Мастрантонио /Mary Elizabeth Mastrantonio/, Колин Фрилз /Colin Friels/, Джоанна Мерлин /Joanna Merlin/, Лоуренс Фишберн /Laurence Fishburne/, Доналд Мэффэт /Donald Maffat/

Описание: Драма о конфликте двух юристов, отца и дочери. С одной стороны - один из известнейших в стране адвокатов, прославившийся борьбой за гражданские права, непреклонный крестоносец Хэкмэн, с другой стороны - его умненькая дочь Мастрантонио, делающая карьеру в процветающей фирме, с репутацией леди, умеющей взять за горло. В зале суда они оказались противниками, а в жизни?... Блестящая игра Хэкмэна и Мастрантонио, мощная режиссура Эптида вдохнули жизнь в эту судебную драму. (Иванов М.)

Релиз от:

Качество видео: BDRip 720p
Формат видео: MKV

Видео: MPEG-4 AVC, 4620 Кбит/сек, 1280x694, 23,976 кадра/сек
Аудио #1: AC3, 6 ch, 448 Кбит/сек | Русский, профессиональный (многоголосый закадровый)
Аудио #2: AC3, 2 ch, 192 Кбит/сек | Русский, профессиональный (многоголосый закадровый)
Аудио #3: AC3, 2 ch, 192 Кбит/сек | Русский, авторский (одноголосый закадровый) Андрей Гаврилов
Аудио #4: AC3, 2 ch, 384 Кбит/сек | Английский, оригинал
x264 [info]: frame I:1041 Avg QP:16.53 size: 90606
x264 [info]: frame P:28069 Avg QP:19.28 size: 41779
x264 [info]: frame B:128629 Avg QP:20.80 size: 19669
-----------------------------------------------------
Общее
Уникальный идентификатор : 240125019270399749616285226685582658493 (0xB4A6658115F4D6E6B4F3423F4C5DCBBD)
Полное имя : Коллективный.иск.1991.BDRip.720p.KORSAR.mkv
Формат : Matroska
Версия формата : Version 2
Размер файла : 4,47 Гбайт
Продолжительность : 1 ч. 49 м.
Общий поток : 5836 Кбит/сек
Дата кодирования : UTC 2018-08-03 01:12:52
Программа кодирования : mkvmerge v5.8.0 ('No Sleep / Pillow') built on Sep 2 2012 15:37:04
Библиотека кодирования : libebml v1.2.3 + libmatroska v1.3.0

Видео
Идентификатор : 1
Формат : AVC
Формат/Информация : Advanced Video Codec
Профиль формата : High@L4.1
Настройки формата : CABAC / 9 Ref Frames
Параметр CABAC формата : Да
Параметр RefFrames формата : 9 кадров
Идентификатор кодека : V_MPEG4/ISO/AVC
Продолжительность : 1 ч. 49 м.
Битрейт : 4620 Кбит/сек
Ширина : 1280 пикселей
Высота : 694 пикселя
Соотношение сторон : 1,85:1
Режим частоты кадров : Постоянный
Частота кадров : 23,976 (24000/1001) кадра/сек
Цветовое пространство : YUV
Субдискретизация насыщенности : 4:2:0
Битовая глубина : 8 бит
Тип развёртки : Прогрессивная
Бит/(Пиксели*Кадры) : 0.217
Размер потока : 3,45 Гбайт (77%)
Заголовок : RIP | MZMA
Библиотека кодирования : x264 core 152 r2851kMod ba24899
Настройки программы : cabac=1 / ref=9 / deblock=1:-3:-3 / analyse=0x3:0x113 / me=umh / subme=11 / psy=1 / fade_compensate=0.00 / psy_rd=1.00:0.00 / mixed_ref=1 / me_range=48 / chroma_me=1 / trellis=2 / 8x8dct=1 / cqm=0 / deadzone=21,11 / fast_pskip=0 / chroma_qp_offset=-2 / threads=6 / lookahead_threads=1 / sliced_threads=0 / nr=0 / decimate=0 / interlaced=0 / bluray_compat=0 / constrained_intra=0 / bframes=16 / b_pyramid=2 / b_adapt=2 / b_bias=0 / direct=3 / weightb=1 / open_gop=0 / weightp=2 / keyint=240 / keyint_min=23 / scenecut=40 / intra_refresh=0 / rc_lookahead=40 / rc=2pass / mbtree=0 / bitrate=4620 / ratetol=1.0 / qcomp=0.60 / qpmin=0 / qpmax=69 / qpstep=4 / cplxblur=20.0 / qblur=0.5 / vbv_maxrate=50000 / vbv_bufsize=62500 / nal_hrd=none / filler=0 / ip_ratio=1.40 / pb_ratio=1.30 / aq=3:0.90
Язык : English
По умолчанию : Да
Принудительно : Нет
Цветовой диапазон : Limited
Основные цвета : BT.709
Характеристики трансфера : BT.709
Коэффициенты матрицы : BT.709

Аудио #1
Идентификатор : 2
Формат : AC-3
Формат/Информация : Audio Coding 3
Идентификатор кодека : A_AC3
Продолжительность : 1 ч. 49 м.
Вид битрейта : Постоянный
Битрейт : 448 Кбит/сек
Каналы : 6 каналов
Расположение каналов : Front: L C R, Side: L R, LFE
Частота : 48,0 КГц
Частота кадров : 31,250 кадров/сек (1536 SPF)
Битовая глубина : 16 бит
Метод сжатия : С потерями
Размер потока : 351 Мбайт (8%)
Заголовок : MVO | 5.1
Язык : Russian
По умолчанию : Да
Принудительно : Нет

Аудио #2
Идентификатор : 3
Формат : AC-3
Формат/Информация : Audio Coding 3
Идентификатор кодека : A_AC3
Продолжительность : 1 ч. 49 м.
Вид битрейта : Постоянный
Битрейт : 192 Кбит/сек
Каналы : 2 канала
Расположение каналов : Front: L R
Частота : 48,0 КГц
Частота кадров : 31,250 кадров/сек (1536 SPF)
Битовая глубина : 16 бит
Метод сжатия : С потерями
Размер потока : 151 Мбайт (3%)
Заголовок : MVO | 2.0
Язык : Russian
По умолчанию : Нет
Принудительно : Нет

Аудио #3
Идентификатор : 4
Формат : AC-3
Формат/Информация : Audio Coding 3
Идентификатор кодека : A_AC3
Продолжительность : 1 ч. 49 м.
Вид битрейта : Постоянный
Битрейт : 192 Кбит/сек
Каналы : 2 канала
Расположение каналов : Front: L R
Частота : 48,0 КГц
Частота кадров : 31,250 кадров/сек (1536 SPF)
Битовая глубина : 16 бит
Метод сжатия : С потерями
Размер потока : 151 Мбайт (3%)
Заголовок : AVO | А. Гаврилов
Язык : Russian
По умолчанию : Нет
Принудительно : Нет

Аудио #4
Идентификатор : 5
Формат : AC-3
Формат/Информация : Audio Coding 3
Идентификатор кодека : A_AC3
Продолжительность : 1 ч. 49 м.
Вид битрейта : Постоянный
Битрейт : 384 Кбит/сек
Каналы : 2 канала
Расположение каналов : Front: L R
Частота : 48,0 КГц
Частота кадров : 31,250 кадров/сек (1536 SPF)
Битовая глубина : 16 бит
Метод сжатия : С потерями
Размер потока : 301 Мбайт (7%)
Заголовок : Original
Язык : English
По умолчанию : Нет
Принудительно : Нет

Текст #1
Идентификатор : 6
Формат : UTF-8
Идентификатор кодека : S_TEXT/UTF8
Идентификатор кодека/Информация : UTF-8 Plain Text
Заголовок : 1
Язык : English
По умолчанию : Нет
Принудительно : Нет

Текст #2
Идентификатор : 7
Формат : UTF-8
Идентификатор кодека : S_TEXT/UTF8
Идентификатор кодека/Информация : UTF-8 Plain Text
Заголовок : 2
Язык : English
По умолчанию : Нет
Принудительно : Нет

Текст #3
Идентификатор : 8
Формат : UTF-8
Идентификатор кодека : S_TEXT/UTF8
Идентификатор кодека/Информация : UTF-8 Plain Text
Язык : Finnish
По умолчанию : Нет
Принудительно : Нет

Текст #4
Идентификатор : 9
Формат : UTF-8
Идентификатор кодека : S_TEXT/UTF8
Идентификатор кодека/Информация : UTF-8 Plain Text
Язык : Spanish
По умолчанию : Нет
Принудительно : Нет

Текст #5
Идентификатор : 10
Формат : UTF-8
Идентификатор кодека : S_TEXT/UTF8
Идентификатор кодека/Информация : UTF-8 Plain Text
Язык : Italian
По умолчанию : Нет
Принудительно : Нет

Меню
00:00:00.000 : en:Chapter 01
00:01:43.914 : en:Chapter 02
00:07:57.162 : en:Chapter 03
00:13:13.811 : en:Chapter 04
00:15:43.753 : en:Chapter 05
00:20:45.638 : en:Chapter 06
00:23:55.411 : en:Chapter 07
00:28:18.465 : en:Chapter 08
00:32:08.236 : en:Chapter 09
00:49:20.184 : en:Chapter 10
00:54:42.589 : en:Chapter 11
00:56:27.110 : en:Chapter 12
01:04:34.264 : en:Chapter 13
01:10:17.231 : en:Chapter 14
01:13:59.161 : en:Chapter 15
01:16:03.619 : en:Chapter 16
01:19:06.510 : en:Chapter 17
01:23:29.856 : en:Chapter 18
01:27:19.628 : en:Chapter 19
01:29:15.785 : en:Chapter 20
01:33:47.181 : en:Chapter 21
01:38:52.403 : en:Chapter 22
01:40:51.397 : en:Chapter 23
01:43:37.313 : en:Chapter 24
01:46:28.859 : en:Chapter 25
скриншот   скриншот   скриншот   скриншот  
pb.wtf



Скачать Коллективный иск через торрент https://a.radikal.ru/a43/1807/5a/4013a16c2f9b.png Скачать фильм Коллективный иск через торрент бесплантно в хорошем качестве Описание: Драма о конфликте двух юристов, отца и дочери. С одной стороны - один из известнейших в стране адвокатов, прославившийся борьбой ... 10 10 1
Info! Золотая раздача, скачанное не засчитывается.
Торрент: Зарегистрирован [2019-07-09 07:36] · скачан: 13 раз
Статус: √ проверено
Размер: 4.47 GB
Как cкачать? Как скачать Коллективный иск через торрент | qTorrent


>> Регистрируемся здесь <<






Отзывы и комментарии о схеме читаем и пишем здесь: ---> Отзывы и комментарии о схеме

Новые благодарочки в телеграм довольных пользователей:
скриншот   скриншот   скриншот   скриншот   скриншот
    Дорогой пользователь! Огромная просьба, поблагодарите релизера, оцените раздачу и оставьте свои комментарий, если Вы скачали Коллективный иск через торрент бесплатно! Внесите свою лепту в развитие PiratBit!
    Комментировать посты могут только пользователи прошедшие не сложную регистрацию
    Показать сообщения:    

    Коллективный иск через торрент
    Скачать бесплатно Коллективный иск
    Коллективный иск скачать торрент
    Коллективный иск смотреть онлайн
    Cкачать фильм Коллективный иск бесплатно
    Коллективный иск скачать торрент в хорошем качестве
    Коллективный иск смотреть онлайн бесплатно в хорошем качестве


    Вы не можете начинать темы
    Вы не можете отвечать на сообщения
    Вы не можете редактировать свои сообщения
    Вы не можете удалять свои сообщения
    Вы не можете голосовать в опросах
    Вы не можете прикреплять файлы к сообщениям
    Вы можете скачивать файлы