Ссылка на приватное зеркало всего за 1$. Внимание количество ограничено!!!

iTunes

iTunes

iTunes

1

iTunes

iTunes

iTunes

iTunes

iTunes

30
pack

Новость дня

ВАЖНО

!!Акция!!

Alien_RageХит недели

RePack

Resident Evil 21

ИГРА 18+

pack

RePack

jed

!!Акция!!

Alien_Rage

RePack

fifa19

RePack

Assassins Creed: Odyssey

RePack

NEED FOR SPEED™ PAYBACK

4 сезон

9 сезон

Бесстыжие 9 сезон

Все сериалы

все сериалы на PB.wtf

RePack

FAR CRY 5
  

Родная кровь (Михаил Ершов) [1963, СССР, драма, DVDRip от AVP Studio] pb.wtf

Родная кровь через торрент pb.wtf

Качают: 1 [ 0 KB/s ]
Размер: 1.09 GB | Добавлен: 10 мес. назад | Торрент скачан:12 раз
Скачать  

10-07-2019 07:47 Родная кровь Скачать торрент  

Родная кровь
Страна: СССР
Производство: Ленфильм

Жанр: драма
Год выпуска: 1963
Продолжительность: 01:25:20

Перевод: Не требуется
Cубтитры: нет
Оригинальная аудиодорожка: русский

Режиссер: Михаил Ершов

В ролях:
Вия Артмане, Евгений Матвеев, Анатолий Папанов, Владимир Ратомский, Татьяна Доронина (II), Андрей Данилов, Юрий Фисенко, Вера Поветкина, Коля Морозов, Игорь Селюженок...
Об актёрах подробней

Описание:
«Если что — нибудь случится, самое страшное, если тебя покалечат… Возвращайся ко мне, возвращайся!» — как заклинание, которое в силах уберечь любимого от смерти, произносит героиня фильма.
Война свела, разлучила и снова свела сержанта Федотова и паромщицу Соню. Об их прекрасной, щедрой и трудной любви рассказывает этот фильм…

Источник: DVD5 R5
Качество видео: DVDRip
Формат видео: AVI

Видео: 704х496 (1,419:1), 25,000 fps, XviD ~ 1624 kbps avg, 0.186 bit/pixel
Аудио: 48 kHz, Dolby Digital AC3 2.0, 192 kbps

Раздача от:
Общее
Полное имя : Rodnaya.krov.1963.DVDRip_[New-team]_by_AVP_Studio.avi
Формат : AVI
Формат/Информация : Audio Video Interleave
Размер файла : 1,09 Гбайт
Продолжительность : 1 ч. 25 м.
Общий поток : 1826 Кбит/сек
Программа кодирования : VirtualDubMod 1.5.10.3 | www.virtualdub-fr.org || (build 2550/release)
Библиотека кодирования : VirtualDubMod build 2550/release

Видео
Идентификатор : 0
Формат : MPEG-4 Visual
Профиль формата : Advanced Simple@L5
Настройки формата : BVOP1 / Custom Matrix
Параметр BVOP формата : 1
Параметр QPel формата : Нет
Параметр GMC формата : Без точки перехода
Параметр матрицы формата : Выборочная
Идентификатор кодека : XVID
Идентификатор кодека/Подсказка : XviD
Продолжительность : 1 ч. 25 м.
Битрейт : 1624 Кбит/сек
Ширина : 704 пикселя
Высота : 496 пикселей
Соотношение сторон : 1,419
Частота кадров : 25,000 кадров/сек
Цветовое пространство : YUV
Субдискретизация насыщенности : 4:2:0
Битовая глубина : 8 бит
Тип развёртки : Прогрессивная
Метод сжатия : С потерями
Бит/(Пиксели*Кадры) : 0.186
Размер потока : 991 Мбайт (89%)
Библиотека кодирования : XviD 73

Аудио
Идентификатор : 1
Формат : AC-3
Формат/Информация : Audio Coding 3
Коммерческое название : Dolby Digital
Идентификатор кодека : 2000
Продолжительность : 1 ч. 25 м.
Вид битрейта : Постоянный
Битрейт : 192 Кбит/сек
Каналы : 2 канала
ChannelLayout : L R
Частота : 48,0 КГц
Частота кадров : 31,250 кадров/сек (1536 SPF)
Битовая глубина : 16 бит
Метод сжатия : С потерями
Размер потока : 117 Мбайт (11%)
Выравнивание : Разделение по промежуткам
Продолжительность промежутка : 40 мс. (1,00 видеокадр)
Время предзагрузки промежутка : 500 мс.
pb.wtf



Скачать Родная кровь через торрент http://d.radikal.ru/d38/1912/13/446bc19100d4.png Скачать фильм Родная кровь через торрент бесплантно в хорошем качестве Описание:«Если что — нибудь случится, самое страшное, если тебя покалечат… Возвращайся ко мне, возвращайся!» — как заклинание, которое в ... 5 10 1
Торрент: Зарегистрирован [2019-07-10 07:47] · скачан: 12 раз
Статус: √ проверено
Размер: 1.09 GB
Как cкачать? Как скачать Родная кровь через торрент | qTorrent

% Раздел Тема Автор DL S | L
Кино СССР [ 1.09 GB ] Родная кровь [1963 СССР DVDRip-AVC от AVP Studio] AVP Studio Скачать
4 | 1
Наши сериалы [ 10.25 GB ] Родная кровь / Серии: 1-4 из 4 [2018 Мело HDTV 1080i] bober100 Скачать
1 | 0
Наши сериалы [ 2.42 GB ] Родная кровь / Серии: 1-4 из 4 [2018 Мело WEB-DLRip] Скорпион1976 Скачать
1 | 0
T Фильмы 2015 [DVDrip, WEB-DLRip, HDrip] [ 745 MB ] Родная кровь / Bleeding Heart [2015 WEB-DLRip Любительский ] sanekbest1 Скачать
1 | 0

28-11-2019 20:33  

Отключить всю рекламу на сайте

    Дорогой пользователь! Огромная просьба, поблагодарите релизера, оцените раздачу и оставьте свои комментарий, если Вы скачали Родная кровь через торрент бесплатно! Внесите свою лепту в развитие PiratBit!
    Комментировать посты могут только пользователи прошедшие не сложную регистрацию
    Показать сообщения:    

    Родная кровь через торрент
    Скачать бесплатно Родная кровь
    Родная кровь скачать торрент
    Родная кровь смотреть онлайн
    Cкачать фильм Родная кровь бесплатно
    Родная кровь скачать торрент в хорошем качестве
    Родная кровь смотреть онлайн бесплатно в хорошем качестве


    Вы не можете начинать темы
    Вы не можете отвечать на сообщения
    Вы не можете редактировать свои сообщения
    Вы не можете удалять свои сообщения
    Вы не можете голосовать в опросах
    Вы не можете прикреплять файлы к сообщениям
    Вы можете скачивать файлы