новый адрес
Ссылка на приватное зеркало всего за 1$. Внимание количество ограничено!!!

iTunes

1+1

iTunes

мы

iTunes

1

iTunes

Чернобыль

iTunes

Ральф против интернета

Лицензия

ПШазам

Лицензия

Оно 2

Лицензия

30
pack

Вам бонус

ВАЖНО

!!Акция!!

Alien_RageХит недели

RePack

Resident Evil 21

ИГРА 18+

pack

RePack

jed

!!Акция!!

Alien_Rage

RePack

fifa19

RePack

Assassins Creed: Odyssey

RePack

NEED FOR SPEED™ PAYBACK

3 сезон

9 сезон

Бесстыжие 9 сезон

Все сериалы

все сериалы на PB.wtf

RePack

FAR CRY 5
Ребята, катастрофически не хватает 1900р. для оплаты серверов за Октябрь (всвязи с блокировками трафик упал в 3 раза), 1-2р., выручайте.
  

Родная кровь (Михаил Ершов) [1963, СССР, драма, DVDRip-AVC от AVP Studio] pb.wtf

Родная кровь через торрент pb.wtf

Раздают: 3 [ 0 KB/s ]
Размер: 1.09 GB | Добавлен: 4 мес. 12 д. назад | Торрент скачан:7 раз
Скачать  

10-07-2019 07:48 Родная кровь Скачать торрент  

Родная кровь
Страна: СССР
Производство: Ленфильм

Жанр: драма
Год выпуска: 1963
Продолжительность: 01:25:20

Перевод: Не требуется
Cубтитры: нет
Оригинальная аудиодорожка: русский

Режиссер: Михаил Ершов

В ролях:
Вия Артмане, Евгений Матвеев, Анатолий Папанов, Владимир Ратомский, Татьяна Доронина (II), Андрей Данилов, Юрий Фисенко, Вера Поветкина, Коля Морозов, Игорь Селюженок...
Об актёрах подробней

Описание:
«Если что — нибудь случится, самое страшное, если тебя покалечат… Возвращайся ко мне, возвращайся!» — как заклинание, которое в силах уберечь любимого от смерти, произносит героиня фильма.
Война свела, разлучила и снова свела сержанта Федотова и паромщицу Соню. Об их прекрасной, щедрой и трудной любви рассказывает этот фильм…

Источник: DVD5 R5
Качество видео: DVDRip-AVC
Формат видео: MKV

Видео: 712->788х556 (1,421:1), 25,000 fps, H264 ~ 1633 kbps avg, 0.165 bit/pixel
Аудио: 48 kHz, Dolby Digital AC3 2.0, 192 kbps

Раздача от:
Общее
Полное имя : Rodnaya.krov.1963.DVDRip-AVC_[New-team]_by_AVP_Studio.mkv
Формат : Matroska
Версия формата : Version 2
Размер файла : 1,09 Гбайт
Продолжительность : 1 ч. 25 м.
Общий поток : 1827 Кбит/сек
Дата кодирования : UTC 2019-07-03 01:16:59
Программа кодирования : mkvmerge v6.1.0 ('Old Devil') built on Mar 4 2013 09:10:42
Библиотека кодирования : libebml v1.3.0 + libmatroska v1.4.0

Видео
Идентификатор : 1
Формат : AVC
Формат/Информация : Advanced Video Codec
Профиль формата : High@L4.1
Настройки формата : CABAC / 10 Ref Frames
Параметр CABAC формата : Да
Параметр RefFrames формата : 10 кадров
Идентификатор кодека : V_MPEG4/ISO/AVC
Продолжительность : 1 ч. 25 м.
Битрейт : 1633 Кбит/сек
Ширина : 712 пикселей
Высота : 556 пикселей
Соотношение сторон : 1,421
Соотношение сторон в оригинале : 1,420
Режим частоты кадров : Постоянный
Частота кадров : 25,000 кадров/сек
Цветовое пространство : YUV
Субдискретизация насыщенности : 4:2:0
Битовая глубина : 8 бит
Тип развёртки : Прогрессивная
Бит/(Пиксели*Кадры) : 0.165
Размер потока : 976 Мбайт (87%)
Библиотека кодирования : x264 core 157 r2932 303c484
Настройки программы : cabac=1 / ref=10 / deblock=1:-2:-1 / analyse=0x3:0x113 / me=umh / subme=10 / psy=1 / psy_rd=1.00:0.00 / mixed_ref=1 / me_range=32 / chroma_me=1 / trellis=2 / 8x8dct=1 / cqm=0 / deadzone=21,11 / fast_pskip=1 / chroma_qp_offset=-2 / threads=6 / lookahead_threads=1 / sliced_threads=0 / nr=0 / decimate=0 / interlaced=0 / bluray_compat=0 / constrained_intra=0 / bframes=8 / b_pyramid=2 / b_adapt=2 / b_bias=0 / direct=3 / weightb=1 / open_gop=0 / weightp=2 / keyint=250 / keyint_min=25 / scenecut=40 / intra_refresh=0 / rc=2pass / mbtree=0 / bitrate=1633 / ratetol=1.0 / qcomp=0.60 / qpmin=0 / qpmax=69 / qpstep=4 / cplxblur=20.0 / qblur=0.5 / ip_ratio=1.40 / pb_ratio=1.30 / aq=1:1.00
Default : Да
Forced : Нет

Аудио
Идентификатор : 2
Формат : AC-3
Формат/Информация : Audio Coding 3
Коммерческое название : Dolby Digital
Идентификатор кодека : A_AC3
Продолжительность : 1 ч. 25 м.
Вид битрейта : Постоянный
Битрейт : 192 Кбит/сек
Каналы : 2 канала
ChannelLayout : L R
Частота : 48,0 КГц
Частота кадров : 31,250 кадров/сек (1536 SPF)
Битовая глубина : 16 бит
Метод сжатия : С потерями
Размер потока : 117 Мбайт (11%)
Default : Да
Forced : Нет
pb.wtf



Скачать Родная кровь через торрент http://picplus.ru/img/1907/10/0e57e838.png Скачать фильм Родная кровь через торрент бесплантно в хорошем качестве Описание:«Если что — нибудь случится, самое страшное, если тебя покалечат… Возвращайся ко мне, возвращайся!» — как заклинание, которое в ... 5 10 1
Торрент: Зарегистрирован [2019-07-10 07:48] · скачан: 7 раз
Статус: √ проверено
Размер: 1.09 GB
Как cкачать? Как скачать Родная кровь через торрент | qTorrent

% Раздел Тема Автор DL S | L
Кино СССР [ 1.09 GB ] Родная кровь [1963 СССР DVDRip от AVP Studio] AVP Studio Скачать
1 | 0
Наши сериалы [ 10.25 GB ] Родная кровь / Серии: 1-4 из 4 [2018 Мело HDTV 1080i] bober100 Скачать
2 | 0
Наши сериалы [ 2.42 GB ] Родная кровь / Серии: 1-4 из 4 [2018 Мело WEB-DLRip] Скорпион1976 Скачать
1 | 0
T Фильмы 2015 [DVDrip, WEB-DLRip, HDrip] [ 745 MB ] Родная кровь / Bleeding Heart [2015 WEB-DLRip Любительский ] sanekbest1 Скачать
1 | 0
    Дорогой пользователь! Огромная просьба, поблагодарите релизера, оцените раздачу и оставьте свои комментарий, если Вы скачали Родная кровь через торрент бесплатно! Внесите свою лепту в развитие PiratBit!
    Комментировать посты могут только пользователи прошедшие не сложную регистрацию
    Показать сообщения:    

    Родная кровь через торрент
    Скачать бесплатно Родная кровь
    Родная кровь скачать торрент
    Родная кровь смотреть онлайн
    Cкачать фильм Родная кровь бесплатно
    Родная кровь скачать торрент в хорошем качестве
    Родная кровь смотреть онлайн бесплатно в хорошем качестве


    Вы не можете начинать темы
    Вы не можете отвечать на сообщения
    Вы не можете редактировать свои сообщения
    Вы не можете удалять свои сообщения
    Вы не можете голосовать в опросах
    Вы не можете прикреплять файлы к сообщениям
    Вы можете скачивать файлы