Ссылка на приватное зеркало нашего сайта всего за 1$. Внимание количество ограничено!!!

2 сезон

iTunes

1 сезон

1

2 сезон

2 сезон

iTunes

1 сезон

RePack

30

Ultimate

ВАЖНО

ИГРА 18+

pack

RePack

MK11
pack

Забери бонус

RePack

jed

!!Акция!!

Alien_Rage

RePack

fifa19

RePack

Assassins Creed: Odyssey

RePack

NEED FOR SPEED™ PAYBACK

4 сезон

9 сезон

Бесстыжие 9 сезон

Все сериалы

все сериалы на PB.wtf

RePack

FAR CRY 5
  

Вспышка / Flashpoint (Уильям Тэннен / William Tannen) [1984 г., Триллер, WEB-DL 1080p от KORSAR][DUB + 2xAVO] pb.wtf

Вспышка через торрент pb.wtf

Размер: 9.56 GB | Добавлен: 1 год 4 мес. назад | Торрент скачан:13 раз
Скачать  

10-07-2019 07:53 Вспышка Скачать торрент  

Название: Вспышка
Оригинальное название: Flashpoint
Год выпуска: 1984
Жанр: Триллер
Продолжительность: 01:33:00
Перевод: Дублированный, авторский
Выпущено: США, Home Box Office (HBO), Silver Screen Partners

Режиссер: Уильям Тэннен
В ролях: Крис Кристофферсон, Трит Уильямс, Рип Торн, Кевин Конуэй, Кертвуд Смит, Мигель Феррер, Джин Смарт, Гай Бойд, Марк Слэйд, Робертс Блоссом

Описание: Два офицера пограничного патруля случайно находят полузасыпанный песком джип, а в нем скелет, винтовку и 800 000 долларов наличными, что вовлекает их в таинственную историю, начало которой датируется 1963 годом. Эта находка повлекла за собой вереницу захватывающих и насыщенных «экшеном» приключений, ежеминутно грозящих им смертью. И связано это все, возможно, с убийством президента Кеннеди…

rating

Качество: WEB-DL 1080p
Формат: MKV
Видео: MPEG-4 AVC, 13,6 Мбит/сек, 1920x1080, 29,970 кадров/сек
Аудио #1: AC3, 2 ch, 192 Кбит/сек | Русский, профессиональный (Советский дубляж) со вставками одноголосого, Stalk
Аудио #2: AC3, 2 ch, 192 Кбит/сек | Русский, авторский (одноголосый закадровый) Алексей Михалев
Аудио #3: AC3, 2 ch, 192 Кбит/сек | Русский, авторский (одноголосый закадровый) Леонид Володарский
Аудио #4: EAC3, 2 ch, 224 Кбит/сек | Английский, оригинал
Субтитры: Английские
Навигация по главам: Есть

Релиз от:
Общее
Уникальный идентификатор : 197792684131202379581171087195141808364 (0x94CD7C3D98EB8037ABA0CB6002DFA0EC)
Полное имя : Вспышка.1984.WEB-DL.1080p.mkv
Формат : Matroska
Версия формата : Version 2
Размер файла : 9,56 Гбайт
Продолжительность : 1 ч. 32 м.
Режим общего битрейта : Переменный
Общий поток : 14,7 Мбит/сек
Дата кодирования : UTC 2018-04-15 10:40:36
Программа кодирования : mkvmerge v5.8.0 ('No Sleep / Pillow') built on Sep 2 2012 15:37:04
Библиотека кодирования : libebml v1.2.3 + libmatroska v1.3.0

Видео
Идентификатор : 1
Формат : AVC
Формат/Информация : Advanced Video Codec
Профиль формата : High@L4
Настройки формата : CABAC / 4 Ref Frames
Параметр CABAC формата : Да
Параметр RefFrames формата : 4 кадра
Идентификатор кодека : V_MPEG4/ISO/AVC
Продолжительность : 1 ч. 32 м.
Вид битрейта : Переменный
Битрейт : 13,6 Мбит/сек
Максимальный битрейт : 15,0 Мбит/сек
Ширина : 1920 пикселей
Высота : 1080 пикселей
Соотношение сторон : 16:9
Режим частоты кадров : Постоянный
Частота кадров : 29,970 (30000/1001) кадров/сек
Цветовое пространство : YUV
Субдискретизация насыщенности : 4:2:0
Битовая глубина : 8 бит
Тип развёртки : Прогрессивная
Бит/(Пиксели*Кадры) : 0.219
Размер потока : 8,85 Гбайт (93%)
Язык : English
Default : Да
Forced : Нет
Цветовой диапазон : Limited
Основные цвета : BT.709
Характеристики трансфера : BT.709
Коэффициенты матрицы : BT.709

Аудио #1
Идентификатор : 2
Формат : AC-3
Формат/Информация : Audio Coding 3
Идентификатор кодека : A_AC3
Продолжительность : 1 ч. 32 м.
Вид битрейта : Постоянный
Битрейт : 192 Кбит/сек
Каналы : 2 канала
Расположение каналов : Front: L R
Частота : 48,0 КГц
Частота кадров : 31,250 кадров/сек (1536 SPF)
Битовая глубина : 16 бит
Метод сжатия : С потерями
Задержка видео : -1 мс.
Размер потока : 128 Мбайт (1%)
Заголовок : DUB
Язык : Russian
По умолчанию : Да
Принудительно : Нет

Аудио #2
Идентификатор : 3
Формат : AC-3
Формат/Информация : Audio Coding 3
Идентификатор кодека : A_AC3
Продолжительность : 1 ч. 32 м.
Вид битрейта : Постоянный
Битрейт : 192 Кбит/сек
Каналы : 2 канала
Расположение каналов : Front: L R
Частота : 48,0 КГц
Частота кадров : 31,250 кадров/сек (1536 SPF)
Битовая глубина : 16 бит
Метод сжатия : С потерями
Задержка видео : -1 мс.
Размер потока : 128 Мбайт (1%)
Заголовок : AVO | А. Михалев
Язык : Russian
По умолчанию : Нет
Принудительно : Нет

Аудио #3
Идентификатор : 4
Формат : AC-3
Формат/Информация : Audio Coding 3
Идентификатор кодека : A_AC3
Продолжительность : 1 ч. 32 м.
Вид битрейта : Постоянный
Битрейт : 192 Кбит/сек
Каналы : 2 канала
Расположение каналов : Front: L R
Частота : 48,0 КГц
Частота кадров : 31,250 кадров/сек (1536 SPF)
Битовая глубина : 16 бит
Метод сжатия : С потерями
Задержка видео : -1 мс.
Размер потока : 128 Мбайт (1%)
Заголовок : AVO | Л. Володарский
Язык : Russian
По умолчанию : Нет
Принудительно : Нет

Аудио #4
Идентификатор : 5
Формат : E-AC-3
Формат/Информация : Enhanced Audio Coding 3
Идентификатор кодека : A_EAC3
Продолжительность : 1 ч. 32 м.
Вид битрейта : Постоянный
Битрейт : 224 Кбит/сек
Каналы : 2 канала
Расположение каналов : Front: L R
Частота : 48,0 КГц
Частота кадров : 187,500 кадров/сек (256 SPF)
Метод сжатия : С потерями
Задержка видео : 28 мс.
Размер потока : 149 Мбайт (2%)
Заголовок : Original
Язык : English
По умолчанию : Нет
Принудительно : Нет

Текст #1
Идентификатор : 6
Формат : UTF-8
Идентификатор кодека : S_TEXT/UTF8
Идентификатор кодека/Информация : UTF-8 Plain Text
Язык : English
По умолчанию : Нет
Принудительно : Нет

Текст #2
Идентификатор : 7
Формат : UTF-8
Идентификатор кодека : S_TEXT/UTF8
Идентификатор кодека/Информация : UTF-8 Plain Text
Заголовок : SDH
Язык : English
По умолчанию : Нет
Принудительно : Нет

Меню
00:00:00.000 : en:Chapter 01
00:07:49.511 : en:Chapter 02
00:14:41.797 : en:Chapter 03
00:24:04.568 : en:Chapter 04
00:29:08.372 : en:Chapter 05
00:34:30.694 : en:Chapter 06
00:41:46.671 : en:Chapter 07
00:48:10.346 : en:Chapter 08
00:57:50.342 : en:Chapter 09
01:02:42.467 : en:Chapter 10
01:08:02.453 : en:Chapter 11
01:20:17.771 : en:Chapter 12
01:30:01.730 : en:Chapter 13
скриншот  скриншот  скриншот  скриншот  скриншот  скриншот  

скриншот  скриншот  скриншот  скриншот  скриншот  скриншот  
Исходник видео WEB-DL Amazon.
pb.wtf



Скачать Вспышка через торрент http://i101.fastpic.ru/big/2018/0313/11/ea9ecd76770b82cdec3bbbfa25aa2111.png Скачать фильм Вспышка через торрент бесплантно в хорошем качестве Описание: Два офицера пограничного патруля случайно находят полузасыпанный песком джип, а в нем скелет, винтовку и 800 000 долларов ... 10 10 1
Info! Золотая раздача, скачанное не засчитывается.
Торрент: Зарегистрирован [2019-07-10 07:53] · скачан: 13 раз
Статус: √ проверено
Размер: 9.56 GB
Как cкачать? Как скачать Вспышка через торрент | qTorrent

% Раздел Тема Автор DL S | L
Фильмы (HD 720p, 1080p) (48-60 fps) [ 3.64 GB ] Вспышка / Проблеск / Озарение / Flashpoint [1984 WEB-DL 720p / 60 FPS ] от R.G. HD-Films slaventi-69 Скачать
1 | 0
Фильмы до 2000 г. [ 1.37 GB ] Вспышка / Flashpoint [1984 DVDRip] DUB Fenix lug30 Скачать
1 | 0
Порно фильмы с русским переводом [ 663 MB ] Точка вспышки / Flashpoint [1999 Feature VHSRip VO] 19alexei87 Скачать
1 | 0

28-11-2019 20:33  

Отключить всю рекламу на сайте

    Дорогой пользователь! Огромная просьба, поблагодарите релизера, оцените раздачу и оставьте свои комментарий, если Вы скачали Вспышка через торрент бесплатно! Внесите свою лепту в развитие PiratBit!
    Комментировать посты могут только пользователи прошедшие не сложную регистрацию
    Показать сообщения:    

    Вспышка через торрент
    Скачать бесплатно Вспышка
    Вспышка скачать торрент
    Вспышка смотреть онлайн
    Cкачать фильм Вспышка бесплатно
    Вспышка скачать торрент в хорошем качестве
    Вспышка смотреть онлайн бесплатно в хорошем качестве


    Вы не можете начинать темы
    Вы не можете отвечать на сообщения
    Вы не можете редактировать свои сообщения
    Вы не можете удалять свои сообщения
    Вы не можете голосовать в опросах
    Вы не можете прикреплять файлы к сообщениям
    Вы можете скачивать файлы