>

7.4

iTunes

7.4

2 сезон

9.4

1 сезон

1

7.4

2 сезон

7.2

iTunes

6.0

MVO

13

6.1

iTunes

8.3

Пиратка

30

ULTIMATE

pack

9.9

Лицензия

ВАЖНО

ИГРА 18+

pack

7.3

RePack

MK11

7.7

RePack

jed

7.8

RePack

fifa19

8.5

RePack

RDR2

RePack

NEED FOR SPEED™ PAYBACK

1 сезон

9 сезон

Бесстыжие 9 сезон

Все сериалы

все сериалы на PB.wtf

RePack

FAR CRY 5

Anonymous, добрый вечер, мы катастрофически не успеваем собрать деньги на оплату серверов, помогите нам пожалуйста 5,10,15р., для нас важна любая помощь . В качестве благодарности мы отключим Вам всю рекламу на сайте (укажите свой ник в строку Ваше имя)!

×
  
Magnet ссылка

Дистанционное управление / Remote (Тед Николау) [1993, Фантастика, фэнтези, комедия, приключения, WEB-DL 1080p] AVO - KORSAR pb.wtf

Дистанционное управление через торрент pb.wtf

Раздают: 2 [ 0 KB/s ]
Размер: 8.22 GB | Добавлен: 2 года 6 мес. назад | Торрент скачан:24 раза
Смотреть онлайн Дистанционное управление | Скачать    Ребята, помогите собрать деньги на оплату серверов!!!

10-07-2019 16:31 Дистанционное управление Скачать торрент  

Дистанционное управление / RemoteГод выпуска: 1993
Выпущено: США, Full Moon Entertainment, Moonbeam Entertainment, Paramount Pictures
Жанр: фантастика, фэнтези, комедия, приключения, семейный
Продолжительность: 01:19:35
Перевод: Авторский (одноголосый закадровый) Вартан Дохалов
Субтитры: Английские.

Режиссёр: Тед Николау
В ролях: Крис Каррара, Джессика Боуман, Джон Дил, Тони Лонго, Стюарт Фрэткин, Дерия Рагглз, Джордан Бэлфи, Кеннет А. Браун, Лорна Скотт, Энн Рэндольф

Описание: У мальчика Рэнди одна, но пламенная страсть. Он — гений управляемых моделей — планеров, машинок, всевозможных роботов. Когда трое придурковатых бандитов скрываются от полиции в пустующем загородном доме, маленький мститель устраивает им там веселую жизнь.

rating

Качество: WEB-DL 1080p
Формат: MKV
Видео: MPEG-4 AVC, 14000 Кбит/сек, 1920x1080, 23.976 кадра/сек

Аудио #1: AC3, 2 ch, 192 Кбит/сек | Русский, авторский (одноголосый закадровый) Вартан Дохалов
Аудио #2: AC3, 6 ch, 640 Кбит/сек | Английский, оригинал



Релиз от:
General
Unique ID : 145583932739321443611842829446672650955 (0x6D86720F7646B127C414D38AEAB592CB)
Format : Matroska
Format version : Version 4
File size : 8.22 GiB
Duration : 1 h 19 min
Overall bit rate : 14.8 Mb/s
Movie name : Remote [1993]
Encoded date : UTC 2019-05-13 18:28:39
Writing application : mkvmerge v25.0.0 ('Prog Noir') 64-bit
Writing library : libebml v1.3.6 + libmatroska v1.4.9

Video
ID : 1
Format : AVC
Format/Info : Advanced Video Codec
Format profile : High@L4
Format settings : CABAC / 4 Ref Frames
Format settings, CABAC : Yes
Format settings, Reference frames : 4 frames
Codec ID : V_MPEG4/ISO/AVC
Duration : 1 h 19 min
Bit rate : 14.0 Mb/s
Width : 1 920 pixels
Height : 1 080 pixels
Display aspect ratio : 16:9
Frame rate mode : Constant
Frame rate : 23.976 (24000/1001) FPS
Color space : YUV
Chroma subsampling : 4:2:0
Bit depth : 8 bits
Scan type : Progressive
Bits/(Pixel*Frame) : 0.281
Stream size : 7.76 GiB (94%)
Title : Remote.1993.1080p.AMZN.WEB-DL.DDP5.1.H.264-ETHiCS
Language : English
Default : Yes
Forced : No
Color range : Limited
Color primaries : BT.709
Transfer characteristics : BT.709
Matrix coefficients : BT.709

Audio #1
ID : 2
Format : AC-3
Format/Info : Audio Coding 3
Commercial name : Dolby Digital
Codec ID : A_AC3
Duration : 1 h 19 min
Bit rate mode : Constant
Bit rate : 192 kb/s
Channel(s) : 2 channels
Channel layout : L R
Sampling rate : 48.0 kHz
Frame rate : 31.250 FPS (1536 SPF)
Bit depth : 16 bits
Compression mode : Lossy
Stream size : 109 MiB (1%)
Title : AVO Вартан Дохалов
Language : Russian
Service kind : Complete Main
Default : No
Forced : No

Audio #2
ID : 3
Format : E-AC-3
Format/Info : Enhanced AC-3
Commercial name : Dolby Digital Plus
Codec ID : A_EAC3
Duration : 1 h 19 min
Bit rate mode : Constant
Bit rate : 640 kb/s
Channel(s) : 6 channels
Channel layout : L R C LFE Ls Rs
Sampling rate : 48.0 kHz
Frame rate : 31.250 FPS (1536 SPF)
Compression mode : Lossy
Stream size : 364 MiB (4%)
Title : Original
Language : English
Service kind : Complete Main
Default : Yes
Forced : No

Text
ID : 4
Format : UTF-8
Codec ID : S_TEXT/UTF8
Codec ID/Info : UTF-8 Plain Text
Duration : 1 h 15 min
Bit rate : 46 b/s
Count of elements : 1157
Stream size : 26.0 KiB (0%)
Title : English [SDH]
Language : English
Default : No
Forced : No
Видеоряд c Amazon(ETHiCS). Cинхронизация звука и сборка - GoldDust
pb.wtf



Скачать Дистанционное управление через торрент https://funkyimg.com/i/2Vofz.jpg Скачать, смотреть онлайн Дистанционное управление бесплантно в хорошем качестве Описание: У мальчика Рэнди одна, но пламенная страсть. Он — гений управляемых моделей — планеров, машинок, всевозможных роботов. Когда трое ... 5 10 1
Торрент: Зарегистрирован [2019-07-10 16:31] · скачан: 24 раз
Статус: √ проверено
Размер: 8.22 GB
Как cкачать? Как скачать Дистанционное управление через торрент | UTorrent



Последний раз редактировалось: GoldDust (2019-07-10 18:48), всего редактировалось 1 раз

28-11-2019 20:33  

Отключить всю рекламу на сайте

    Дорогой пользователь! Огромная просьба, поблагодарите релизера, оцените раздачу и оставьте свои комментарий, если Вы скачали Дистанционное управление через торрент бесплатно!
    Комментировать посты могут только пользователи прошедшие не сложную регистрацию
    Показать сообщения:    

    Дистанционное управление через торрент
    Скачать бесплатно Дистанционное управление
    Дистанционное управление скачать торрент
    Дистанционное управление смотреть онлайн
    Cкачать фильм Дистанционное управление бесплатно
    Дистанционное управление скачать торрент в хорошем качестве
    Дистанционное управление смотреть онлайн бесплатно в хорошем качестве


    Вы не можете начинать темы
    Вы не можете отвечать на сообщения
    Вы не можете редактировать свои сообщения
    Вы не можете удалять свои сообщения
    Вы не можете голосовать в опросах
    Вы не можете прикреплять файлы к сообщениям
    Вы можете скачивать файлы