новый адрес пиратбит piratbit
MEGA NEWS Получи личный уникальный адрес сайта и защити себя от блокировок. Внимание количество ограничено!!!

iTunes

1+1

iTunes

мы

iTunes

1

iTunes

Чернобыль

iTunes

Ральф против интернета

Лицензия

ПШазам

Лицензия

Игра престолов

Лицензия

30
pack

ВАЖНО

!!Акция!!

Alien_RageХит недели

RePack

Resident Evil 21

ИГРА 18+

pack

RePack

Metro:Exodus

!!Акция!!

Alien_Rage

RePack

fifa19

RePack

Assassins Creed: Odyssey

RePack

NEED FOR SPEED™ PAYBACK

3 сезон

9 сезон

Бесстыжие 9 сезон

Все сериалы

все сериалы на PB.wtf

RePack

FAR CRY 5
Ребята, катастрофически не хватает 1900р. для оплаты серверов за АВГУСТ (всвязи с блокировками трафик упал в 3 раза), 1-2р., выручайте.
  

Уилл Пэнни / Will Penny (Том Гриз) [1967 г., мелодрама, вестерн, WEB-DL 1080p] MVO + AVO - KORSAR pb.wtf

Уилл Пэнни через торрент pb.wtf

Раздают: 1 [ 0 KB/s ]
Размер: 10.33 GB | Добавлен: 3 мес. 12 д. назад | Торрент скачан:2 раза
Скачать  

10-07-2019 16:36 Уилл Пэнни Скачать торрент  

Уилл Пэнни / Will Penny
Год выпуска: 1967
Страна: США
Жанр: Мелодрама, вестерн
Продолжительность: 01:49:43
Перевод: Профессиональный многоголосый, авторский одноголосый
Субтитры: Английские
Режиссер: Том Гриз
В ролях: Чарлтон Хестон, Джоан Хэккетт, Дональд Плезенс, Ли Мэйджорс, Брюс Дерн, Бен Джонсон, Слим Пикенс, Клифтон Джеймс, Энтони Зербе, Рой Дженсон, Квентин Дин, Уильям Шэллерт, Лидия Кларк, Джон Грайз
Описание: Снятый в конце 60-х "Уилл Пенни" стал, быть может, первым вестерном, который не ностальгировал по прошлому, оплакивал будущее или издевался над настоящим. История немолодого ковбоя-одиночки Уилла Пенни, который устраивается на работу погонщиком скота, а по возвращению в свою хижину обнаруживает, что она занята незамужней женщиной с сыном-подростком. Актерский состав фильма исключительно удачен, несмотря на отсутствие громких имен. Главная удача картины - это прекрасная игра Ч. Хестона.

rating

Качество: WEB-DL 1080p
Формат: MKV
Видео: MPEG-4 AVC, 1920x1080 (16:9), 12600 kbps, 23.976 fps
Аудио 1: Russian: 48 kHz, AC3, 2.0 ch, 192 kbps - MVO, Paramount Channel
Аудио 2: Russian: 48 kHz, AC3, 2.0 ch, 192 kbps - AVO, С. Рябов
Аудио 3: English: 48 kHz, EAC3, 2.0 ch, 224 kbps - Оригинал

Релиз от:


скриншот  скриншот  скриншот  скриншот  скриншот  скриншот  
Общее
Уникальный идентификатор : 250517139110724461951746369120468325355 (0xBC77D8921DC11B6EBC964EB13771D3EB)
Полное имя : Will.Penny.1967.AMZN.WEB-DL.1080p.mkv
Формат : Matroska
Версия формата : Version 2
Размер файла : 10,3 Гбайт
Продолжительность : 1 ч. 49 м.
Режим общего битрейта : Переменный
Общий поток : 13,5 Мбит/сек
Дата кодирования : UTC 2018-04-27 18:18:17
Программа кодирования : mkvmerge v5.8.0 ('No Sleep / Pillow') built on Sep 2 2012 15:37:04
Библиотека кодирования : libebml v1.2.3 + libmatroska v1.3.0

Видео
Идентификатор : 1
Формат : AVC
Формат/Информация : Advanced Video Codec
Профиль формата : High@L4
Параметр CABAC формата : Да
Параметр RefFrames формата : 4 кадра
Идентификатор кодека : V_MPEG4/ISO/AVC
Продолжительность : 1 ч. 49 м.
Вид битрейта : Переменный
Битрейт : 12,6 Мбит/сек
Максимальный битрейт : 15,0 Мбит/сек
Ширина : 1920 пикселей
Высота : 1080 пикселей
Соотношение сторон : 16:9
Режим частоты кадров : Постоянный
Частота кадров : 23,976 (24000/1001) кадра/сек
Цветовое пространство : YUV
Субдискретизация насыщенности : 4:2:0
Битовая глубина : 8 бит
Тип развёртки : Прогрессивная
Бит/(Пиксели*Кадры) : 0.254
Размер потока : 9,66 Гбайт (94%)
Библиотека кодирования : x264 core 148 r2623 d5b2374
Настройки программы : cabac=1 / ref=4 / deblock=1:-1:-1 / analyse=0x3:0x133 / me=umh / subme=9 / psy=1 / psy_rd=1.00:0.15 / mixed_ref=1 / me_range=24 / chroma_me=1 / trellis=2 / 8x8dct=1 / cqm=0 / deadzone=21,11 / fast_pskip=1 / chroma_qp_offset=-3 / threads=34 / lookahead_threads=5 / sliced_threads=0 / nr=150 / decimate=1 / interlaced=0 / bluray_compat=0 / constrained_intra=0 / bframes=8 / b_pyramid=2 / b_adapt=2 / b_bias=0 / direct=3 / weightb=1 / open_gop=0 / weightp=2 / keyint=120 / keyint_min=61 / scenecut=0 / intra_refresh=0 / rc_lookahead=120 / rc=crf / mbtree=1 / crf=18.0 / qcomp=0.60 / qpmin=0 / qpmax=69 / qpstep=4 / vbv_maxrate=15000 / vbv_bufsize=31250 / crf_max=0.0 / nal_hrd=vbr / filler=0 / ip_ratio=1.40 / aq=3:1.00
Язык : English
Default : Да
Forced : Нет
Цветовой диапазон : Limited
Основные цвета : BT.709
Характеристики трансфера : BT.709
Коэффициенты матрицы : BT.709

Аудио #1
Идентификатор : 2
Формат : AC-3
Формат/Информация : Audio Coding 3
Параметр Endianness формата : Big
Идентификатор кодека : A_AC3
Продолжительность : 1 ч. 49 м.
Вид битрейта : Постоянный
Битрейт : 192 Кбит/сек
Каналы : 2 канала
Расположение каналов : Front: L R
Частота : 48,0 КГц
Частота кадров : 31,250 кадров/сек (1536 SPF)
Битовая глубина : 16 бит
Метод сжатия : С потерями
Размер потока : 151 Мбайт (1%)
Заголовок : MVO, Paramount Channel
Язык : Russian
Default : Да
Forced : Нет

Аудио #2
Идентификатор : 3
Формат : AC-3
Формат/Информация : Audio Coding 3
Параметр Endianness формата : Big
Идентификатор кодека : A_AC3
Продолжительность : 1 ч. 49 м.
Вид битрейта : Постоянный
Битрейт : 192 Кбит/сек
Каналы : 2 канала
Расположение каналов : Front: L R
Частота : 48,0 КГц
Частота кадров : 31,250 кадров/сек (1536 SPF)
Битовая глубина : 16 бит
Метод сжатия : С потерями
Размер потока : 151 Мбайт (1%)
Заголовок : AVO, С. Рябов
Язык : Russian
Default : Нет
Forced : Нет

Аудио #3
Идентификатор : 4
Формат : AC-3
Формат/Информация : Audio Coding 3
Параметр Endianness формата : Big
Идентификатор кодека : A_AC3
Продолжительность : 1 ч. 49 м.
Вид битрейта : Постоянный
Битрейт : 224 Кбит/сек
Каналы : 2 канала
Расположение каналов : Front: L R
Частота : 48,0 КГц
Частота кадров : 31,250 кадров/сек (1536 SPF)
Битовая глубина : 16 бит
Метод сжатия : С потерями
Размер потока : 176 Мбайт (2%)
Заголовок : Оригинал
Язык : English
Default : Нет
Forced : Нет

Текст
Идентификатор : 5
Формат : UTF-8
Идентификатор кодека : S_TEXT/UTF8
Идентификатор кодека/Информация : UTF-8 Plain Text
Язык : English
Default : Нет
Forced : Нет

Меню
00:05:00.430 : en:
00:10:00.519 : en:
00:15:00.586 : en:
00:20:00.863 : en:
00:25:00.104 : en:
00:30:00.247 : en:
00:35:00.096 : en:
00:40:00.567 : en:
00:45:00.121 : en:
00:50:00.899 : en:
00:55:00.684 : en:
01:00:00.960 : en:
01:05:00.842 : en:
01:10:00.108 : en:
01:15:00.234 : en:
01:20:00.671 : en:
01:25:00.443 : en:
01:30:00.121 : en:
01:35:00.934 : en:
01:40:00.764 : en:
01:45:00.572 : en:
pb.wtf



Скачать Уилл Пэнни через торрент https://i3.imageban.ru/out/2019/07/10/06d57d90ac6b4648ec53fd286717c28e.png Скачать фильм Уилл Пэнни через торрент бесплантно в хорошем качестве Описание: Снятый в конце 60-х "Уилл Пенни" стал, быть может, первым вестерном, который не ностальгировал по прошлому, оплакивал будущее или ... 5 10 1
Info! Золотая раздача, скачанное не засчитывается.
Торрент: Зарегистрирован [2019-07-10 16:36] · скачан: 2 раз
Статус: √ проверено
Размер: 10.33 GB
Как cкачать? Как скачать Уилл Пэнни через торрент | qTorrent

% Раздел Тема Автор DL S | L
Классика зарубежного кино [ 5 GB ] Уилл Пэнни / Will Penny [1967 WEB-DLRip 720p] MVO + AVO - KORSAR kisa1980 Скачать
4 | 0


Последний раз редактировалось: kisa1980 (2019-07-11 13:23), всего редактировалось 6 раз(а)


>> Регистрируемся здесь <<






Отзывы и комментарии о схеме читаем и пишем здесь: ---> Отзывы и комментарии о схеме

Новые благодарочки в телеграм довольных пользователей:
скриншот   скриншот   скриншот   скриншот   скриншот

10-07-2019 17:17 Уилл Пэнни Скачать торрент  

Топик был перенесен из форума Фильмы (WEB-DL 720p, 1080p) в форум Классика зарубежного кино


bober100pb.wtf



    Дорогой пользователь! Огромная просьба, поблагодарите релизера, оцените раздачу и оставьте свои комментарий, если Вы скачали Уилл Пэнни через торрент бесплатно! Внесите свою лепту в развитие PiratBit!
    Комментировать посты могут только пользователи прошедшие не сложную регистрацию
    Показать сообщения:    

    Уилл Пэнни через торрент
    Скачать бесплатно Уилл Пэнни
    Уилл Пэнни скачать торрент
    Уилл Пэнни смотреть онлайн
    Cкачать фильм Уилл Пэнни бесплатно
    Уилл Пэнни скачать торрент в хорошем качестве
    Уилл Пэнни смотреть онлайн бесплатно в хорошем качестве


    Вы не можете начинать темы
    Вы не можете отвечать на сообщения
    Вы не можете редактировать свои сообщения
    Вы не можете удалять свои сообщения
    Вы не можете голосовать в опросах
    Вы не можете прикреплять файлы к сообщениям
    Вы можете скачивать файлы