Мега распродажа FORZA HORIZON 4 ULTIMATE+ВСЕ DLC+ОНЛАЙН всего за 499р. 349 руб. (супер цена). Внимание количество ограничено!!!

iTunes

1+1

iTunes

мы

iTunes

1

1 сезон

Чернобыль

1 сезон

Ральф против интернета

Лицензия

ПШазам

8 сезон

Игра престолов

Лицензия

30
pack

ВАЖНО

!!Акция!!

Alien_RageХит недели

RePack

Resident Evil 21

ИГРА 18+

pack

RePack

Metro:Exodus

!!Акция!!

Alien_Rage

RePack

fifa19

RePack

Assassins Creed: Odyssey

RePack

NEED FOR SPEED™ PAYBACK

3 сезон

9 сезон

Бесстыжие 9 сезон

Все сериалы

все сериалы на PB.wtf

RePack

FAR CRY 5
Ребята, катастрофически не хватает 2730р. для оплаты серверов за ИЮНЬ (всвязи с блокировками трафик упал в 3 раза), 1-2р., выручайте.
  

Назад в будущее / Back to the Future (Роберт Земекис) [1985, фантастика, BDRip - HEVC 1080p 12 bit 60 FPS] Дубляж - [Лицензия] pb.wtf

Назад в будущее через торрент pb.wtf

Раздают: 4 [ 0 KB/s ] Качают: 7 [ 0 KB/s ]
Размер: 3.77 GB | Добавлен: 12 д. назад | Торрент скачан:15 раз
Скачать  

10-07-2019 19:16 Назад в будущее Скачать торрент  

Назад в будущее / Back to the Future
««Семнадцатилетний Марти МакФлай пришел вчера домой пораньше. На 30 лет раньше»»

Год выпуска: 1985
Страна: США
Жанр: фантастика,
Продолжительность: 01:56:01
Перевод: Дубляж - [Лицензия]
Субтитры: русские (Full)
Режиссер: Роберт Земекис
В ролях:

Майкл Дж. Фокс (Marty McFly), Кристофер Ллойд (Dr. Emmett Brown), Лиа Томпсон (Lorraine Baines), Криспин Гловер (George McFly), Томас Ф. Уилсон (Biff Tannen), Клаудия Уэллс (Jennifer Parker), Марк МакКлюр (Dave McFly), Уэнди Джо Спербер (Linda McFly), Джордж ДиЧенцо (Sam Baines), Фрэнсис Ли МакКейн (Stella Baines), Джеймс Толкан (Mr. Strickland), Дж.Дж. Коэн (Skinhead)
Описание:
Подросток Марти с помощью машины времени, сооружённой его другом-профессором доком Брауном, попадает из 80-х в далекие 50-е. Там он встречается со своими будущими родителями, ещё подростками, и другом-профессором, совсем молодым.
Мировая премьера: 3 июля 1985

Качество: BDRip 1080p Rip by DD2D3
Формат: MKV
Видео: V_MPEGH/ISO/HEVC, 1920x1040 (1.85:1), 4002 kbps, 59,940 fps, 0,033 bpp
Аудио: русский / AC3 / 5.1 / 48 kHz / 640 kbps / ||
Навигация по главам: есть


Общее
Уникальный идентификатор : 250234901672674118261441587050638958272 (0xBC417D30D2853A06A319432DA3735EC0)
Полное имя : D:\Назад в будущее - Back to the Future (1985) BDRip - HEVC 1080p 12 bit 60 FPS.mkv
Формат : Matroska
Версия формата : Version 4
Размер файла : 3,77 Гбайт
Продолжительность : 1 ч. 56 м.
Общий поток : 4647 Кбит/сек
Название фильма : Rip by DD2D3
Дата кодирования : UTC 2019-07-10 18:51:35
Программа кодирования : mkvmerge v10.0.0 ('To Drown In You') 32bit
Библиотека кодирования : libebml v1.3.4 + libmatroska v1.4.5
Attachments : poster

Видео
Идентификатор : 1
Формат : HEVC
Формат/Информация : High Efficiency Video Coding
Профиль формата : @L4.1@Main
Идентификатор кодека : V_MPEGH/ISO/HEVC
Продолжительность : 1 ч. 56 м.
Битрейт : 4003 Кбит/сек
Ширина : 1920 пикселей
Высота : 1040 пикселей
Соотношение сторон : 1,85:1
Режим частоты кадров : Постоянный
Частота кадров : 59,940 (60000/1001) кадров/сек
Цветовое пространство : YUV
Субдискретизация насыщенности : 4:2:0
Битовая глубина : 12 бит
Бит/(Пиксели*Кадры) : 0.033
Размер потока : 3,24 Гбайт (86%)
Библиотека кодирования : x265 2.3+33-0b7d54dbb71a87a0:[Windows][MSVC 1800][64 bit] 12bit: KG7x [x265.ru]
Настройки программы : cpuid=1173503 / frame-threads=2 / numa-pools=4 / wpp / no-pmode / no-pme / no-psnr / no-ssim / log-level=2 / input-csp=1 / input-res=1920x1040 / interlace=0 / total-frames=417238 / level-idc=41 / high-tier=1 / uhd-bd=0 / ref=3 / no-allow-non-conformance / no-repeat-headers / annexb / no-aud / no-hrd / info / hash=0 / no-temporal-layers / open-gop / min-keyint=25 / keyint=250 / bframes=4 / b-adapt=2 / b-pyramid / bframe-bias=0 / rc-lookahead=20 / lookahead-slices=6 / scenecut=40 / no-intra-refresh / ctu=64 / min-cu-size=8 / no-rect / no-amp / max-tu-size=32 / tu-inter-depth=1 / tu-intra-depth=1 / limit-tu=0 / rdoq-level=0 / dynamic-rd=0.00 / no-ssim-rd / signhide / no-tskip / nr-intra=0 / nr-inter=0 / no-constrained-intra / strong-intra-smoothing / max-merge=2 / limit-refs=3 / no-limit-modes / me=1 / subme=2 / merange=57 / temporal-mvp / weightp / no-weightb / no-analyze-src-pics / deblock=0:0 / no-sao / no-sao-non-deblock / rd=3 / no-early-skip / no-rskip / no-fast-intra / no-tskip-fast / no-cu-lossless / no-b-intra / rdpenalty=0 / psy-rd=4.00 / psy-rdoq=0.00 / no-rd-refine / analysis-mode=0 / no-lossless / cbqpoffs=0 / crqpoffs=0 / rc=abr / bitrate=4000 / qcomp=0.60 / qpstep=1 / stats-write=0 / stats-read=2 / cplxblur=20.0 / qblur=0.5 / ipratio=1.10 / pbratio=1.00 / aq-mode=0 / aq-strength=0.00 / no-cutree / zone-count=0 / no-strict-cbr / qg-size=64 / rc-grain / qpmax=69 / qpmin=0 / sar=1 / overscan=0 / videoformat=5 / range=0 / colorprim=2 / transfer=2 / colormatrix=2 / chromaloc=0 / display-window=0 / max-cll=0,0 / min-luma=0 / max-luma=4095 / log2-max-poc-lsb=8 / vui-timing-info / vui-hrd-info / slices=1 / opt-qp-pps / opt-ref-list-length-pps / no-multi-pass-opt-rps / scenecut-bias=0.05 / no-opt-cu-delta-qp / no-aq-motion / no-hdr / no-hdr-opt / refine-level=5 / no-limit-sao
Default : Да
Forced : Нет

Аудио
Идентификатор : 2
Формат : AC-3
Формат/Информация : Audio Coding 3
Коммерческое название : Dolby Digital
Идентификатор кодека : A_AC3
Продолжительность : 1 ч. 56 м.
Вид битрейта : Постоянный
Битрейт : 640 Кбит/сек
Каналы : 6 каналов
Channel layout : L R C LFE Ls Rs
Частота : 48,0 КГц
Частота кадров : 31,250 кадров/сек (1536 SPF)
Битовая глубина : 16 бит
Метод сжатия : С потерями
Размер потока : 531 Мбайт (14%)
Заголовок : Dub
Язык : Russian
ServiceKind/String : Complete Main
Default : Да
Forced : Нет

Текст
Идентификатор : 3
Формат : UTF-8
Идентификатор кодека : S_TEXT/UTF8
Идентификатор кодека/Информация : UTF-8 Plain Text
Продолжительность : 1 ч. 50 м.
Битрейт : 93 бит/сек
ElementCount : 1351
Размер потока : 75,2 Кбайт (0%)
Заголовок : Full
Язык : Russian
Default : Нет
Forced : Нет

Меню
00:00:00.000 : :Main Titles
00:04:13.544 : :Late for School
00:06:47.281 : :The Slacker
00:11:45.246 : :The Family Mcfly
00:18:04.166 : :A Time Machine?
00:28:12.273 : :Escape to the Past
00:31:30.680 : :1955
00:38:40.693 : :Dad the Dork
00:41:22.313 : :Calvin & Lorraine
00:47:53.370 : :Future Boy & Doc
00:55:53.141 : :Marty's Problem
00:58:49.859 : :The Matchmaker
01:05:16.787 : :Skateboard Hero
01:16:40.304 : :The Big Date
01:20:14.643 : :The Real George
01:27:23.321 : :Johnny B. Goode
01:31:12.049 : :Back to the Future
01:41:40.552 : :Doc's Decision
01:46:41.436 : :Future Shock
01:51:24.511 : :Roads?
01:56:00.662 : :
скриншот  скриншот  скриншот  скриншот  скриншот  

© Оформление by DD2D3 pb.wtf



Скачать Назад в будущее через торрент https://funkyimg.com/i/2Vohx.jpg Скачать фильм Назад в будущее через торрент бесплантно в хорошем качестве Описание: Подросток Марти с помощью машины времени, сооружённой его другом-профессором доком Брауном, попадает из 80-х в далекие 50-е. Там ... 10 10 4
Торрент: Зарегистрирован [2019-07-10 19:16] · скачан: 15 раз
Статус: √ проверено
Размер: 3.77 GB
Как cкачать? Как скачать Назад в будущее через торрент | qTorrent

% Раздел Тема Автор DL S | L
Фильмы (HD 720p, 1080p) (48-60 fps) [ 4.37 GB ] Назад в будущее 3 / Back to the Future Part III [1990 BDRip - HEVC 1080p 12 bit 60 FPS] - [] dd2d3 Скачать
3 | 6
Фильмы (HD 720p, 1080p) (48-60 fps) [ 3.99 GB ] Назад в будущее 2 / Back to the Future Part II [1989 BDRip - HEVC 1080p 12 bit 60 FPS] - [] dd2d3 Скачать
9 | 0
Сборники (HD Video) [ 20.7 GB ] Назад в будущее: Трилогия / Back to the Future: Trilogy [1985 1989 1990 BDRip 720p] akcent Скачать
6 | 1
Сборники на DVD и Сиквелы [DVDrip, WEB-DLRip, HDrip, BDRip] [ 4.34 GB ] Назад в будущее: Трилогия / Back to the Future: Trilogy [1985 1989 1990 HDRip-AVC] DUB / от R.G. nICE Films Demonessa Скачать
2 | 0
Фильмы [HD 720p, 1080p] (Хороший звук DUB, MVO) [ 7.76 GB ] Назад в будущее / Back to the Future [1985 BDRip 1080p + Оригинал] Бумер Скачать
1 | 0
Фильмы [HD 720p, 1080p] (Хороший звук DUB, MVO) [ 7.76 GB ] Назад в будущее 2 / Back to the Future Part II [1989 BDRip 1080p + Оригинал] Бумер Скачать
1 | 1
Фильмы [HD 720p, 1080p] (Хороший звук DUB, MVO) [ 7.76 GB ] Назад в будущее 3 / Back to the Future Part III [1990 BDRip 1080p + Оригинал] Бумер Скачать
1 | 0


>> Регистрируемся здесь <<






Отзывы и комментарии о схеме читаем и пишем здесь: ---> Отзывы и комментарии о схеме

Новые благодарочки в телеграм довольных пользователей:
скриншот   скриншот   скриншот   скриншот   скриншот

11-07-2019 15:27 Назад в будущее Скачать торрент  

Скриншоты заявленного размера1920x1040pb.wtf



13-07-2019 09:20 Назад в будущее Скачать торрент  

А как же с раздачей?pb.wtf



13-07-2019 12:51 Назад в будущее Скачать торрент  

Уже как 1 день, я постоянно раздаюpb.wtf



    Дорогой пользователь! Огромная просьба, поблагодарите релизера, оцените раздачу и оставьте свои комментарий, если Вы скачали Назад в будущее через торрент бесплатно! Внесите свою лепту в развитие PiratBit!
    Комментировать посты могут только пользователи прошедшие не сложную регистрацию
    Показать сообщения:    

    Назад в будущее через торрент
    Скачать бесплатно Назад в будущее
    Назад в будущее скачать торрент
    Назад в будущее смотреть онлайн
    Cкачать фильм Назад в будущее бесплатно
    Назад в будущее скачать торрент в хорошем качестве
    Назад в будущее смотреть онлайн бесплатно в хорошем качестве


    Вы не можете начинать темы
    Вы не можете отвечать на сообщения
    Вы не можете редактировать свои сообщения
    Вы не можете удалять свои сообщения
    Вы не можете голосовать в опросах
    Вы не можете прикреплять файлы к сообщениям
    Вы можете скачивать файлы