Ссылка на приватное зеркало нашего сайта всего за 1$. Внимание количество ограничено!!!

2 сезон

iTunes

1 сезон

1

2 сезон

2 сезон

iTunes

1 сезон

RePack

30

Новинка

ВАЖНО

ИГРА 18+

pack

RePack

MK11
pack

Забери бонус

RePack

jed

!!Акция!!

Alien_Rage

RePack

fifa19

RePack

Assassins Creed: Odyssey

RePack

NEED FOR SPEED™ PAYBACK

4 сезон

9 сезон

Бесстыжие 9 сезон

Все сериалы

все сериалы на PB.wtf

RePack

FAR CRY 5
  

Джессика Джонс / Jessica Jones / Сезон: 3 / Серии: 1-13 из 13 (Ута Бризвитц, Розмари Родригез, Саймон Селлан Джоунс) [2019, Фантастика, боевик, триллер, драма, криминал, WEBRip] MVO [TVShows] pb.wtf

Джессика Джонс через торрент pb.wtf

Размер: 9.24 GB | Добавлен: 1 год 4 мес. назад | Торрент скачан:21 раз
Скачать  

10-07-2019 20:08 Джессика Джонс Скачать торрент  

Джессика Джонс | Jessica Jones Год выпуска: 2019
Страна: США
Жанр: Фантастика, боевик, триллер, драма, криминал
Продолжительность: ~ 00:54:00
Перевод: Профессиональный (многоголосый закадровый) | TVShows
Субтитры: Русские (Нотабеноид), английские

Режиссёр: Ута Бризвитц, Розмари Родригез, Саймон Селлан Джоунс

В ролях: Кристен Риттер, Дэвид Теннант, Майк Колтер, Рэйчел Тейлор, Кэрри-Энн Мосс, Эйка Дарвилл, Эрин Мориарти, Уил Трэвэл, Сьюзи Абромейт, Фил Каппадора и др.

Описание: После трагических событий, оборвавших короткую супергеройскую карьеру Джессики Джонс, девушка пытается восстановить свою личную жизнь и свою карьеру частного детектива, расследуя таинственную активность людей со сверхспособностями в Нью-Йорке.



Качество: WEBRip
Формат: AVI

Видео: XviD, 720x400 (16:9), 23.976 кадров/сек, 1600 Кбит/сек
Аудио Rus: AC3, 48,0 kHz, 2 ch, 192 Кбит/сек | TVShows
Аудио Eng: AC3, 48,0 kHz, 2 ch, 192 Кбит/сек


Реклама: Отсутствует
01. Идеальный бургер / A.K.A The Perfect Burger
02. Или пожалуйста / A.K.A You're Welcome
03. Или у меня нет селезенки / A.K.A I Have No Spleen
04. Или cлужба по работе с клиентами готова / A.K.A Customer Service is Standing By
05. Или мне жаль / A.K.A I Wish
06. Или маска сожаления / A.K.A Sorry Face
07. Или двойной полу-уоппинджер / A.K.A The Double Half-Wappinger
08. Или дружи с камерой / A.K.A Camera Friendly
09. Или сегодня я кое-что сделала / A.K.A I Did Something Today
10. Или геройские штанишки / A.K.A Hero Pants
11. Или Адская Кошка / A.K.A Hellcat
12. A.K.A A Lotta Worms
13.
Общее
Полное имя : E:\Jessica Jones (Season 3) WEBRip\Marvels.Jessica.Jones.S03E01.WEBRip.RGzsRutracker.[Wentworth_Miller].avi
Формат : AVI
Формат/Информация : Audio Video Interleave
Размер файла : 742 Мбайт
Продолжительность : 51 м. 55 с.
Общий поток : 1998 Кбит/сек
Название фильма : Jessica Jones 03x01 (A.K.A The Perfect Burger) - Release by Wentworth_Miller
Программа кодирования : VirtualDubMod 1.5.10.3 | www.virtualdub-fr.org || (build 2550/release)

Видео
Идентификатор : 0
Формат : MPEG-4 Visual
Профиль формата : Advanced Simple@L5
Настройки формата : BVOP1
Параметр BVOP формата : 1
Параметр QPel формата : Нет
Параметр GMC формата : Без точки перехода
Параметр матрицы формата : Default (MPEG)
Идентификатор кодека : XVID
Идентификатор кодека/Подсказка : XviD
Продолжительность : 51 м. 55 с.
Битрейт : 1600 Кбит/сек
Ширина : 720 пикселей
Высота : 400 пикселей
Соотношение сторон : 16:9
Частота кадров : 23,976 (24000/1001) кадра/сек
Цветовое пространство : YUV
Субдискретизация насыщенности : 4:2:0
Битовая глубина : 8 бит
Тип развёртки : Прогрессивная
Метод сжатия : С потерями
Бит/(Пиксели*Кадры) : 0.232
Размер потока : 594 Мбайт (80%)
Библиотека кодирования : XviD 67

Аудио #1
Идентификатор : 1
Формат : AC-3
Формат/Информация : Audio Coding 3
Коммерческое название : Dolby Digital
Идентификатор кодека : 2000
Продолжительность : 51 м. 55 с.
Вид битрейта : Постоянный
Битрейт : 192 Кбит/сек
Каналы : 2 канала
ChannelLayout : L R
Частота : 48,0 КГц
Частота кадров : 31,250 кадров/сек (1536 SPF)
Битовая глубина : 16 бит
Метод сжатия : С потерями
Размер потока : 71,3 Мбайт (10%)
Выравнивание : Разделение по промежуткам
Продолжительность промежутка : 42 мс. (1,00 видеокадр)
Время предзагрузки промежутка : 500 мс.
ServiceKind/String : Complete Main

Аудио #2
Идентификатор : 2
Формат : AC-3
Формат/Информация : Audio Coding 3
Коммерческое название : Dolby Digital
Идентификатор кодека : 2000
Продолжительность : 51 м. 55 с.
Вид битрейта : Постоянный
Битрейт : 192 Кбит/сек
Каналы : 2 канала
ChannelLayout : L R
Частота : 48,0 КГц
Частота кадров : 31,250 кадров/сек (1536 SPF)
Битовая глубина : 16 бит
Метод сжатия : С потерями
Размер потока : 71,3 Мбайт (10%)
Выравнивание : Разделение по промежуткам
Продолжительность промежутка : 42 мс. (1,00 видеокадр)
Время предзагрузки промежутка : 500 мс.
ServiceKind/String : Complete Main
скриншот  скриншот  скриншот  скриншот  
pb.wtf



Скачать Джессика Джонс через торрент https://i106.fastpic.ru/big/2019/0618/c5/f1fef097106baabbd2302960bf55fec5.png Скачать фильм Джессика Джонс через торрент бесплантно в хорошем качестве Описание: После трагических событий, оборвавших короткую супергеройскую карьеру Джессики Джонс, девушка пытается восстановить свою личную ... 10 10 2
Торрент: Зарегистрирован [2019-07-10 20:08] · скачан: 21 раз
Статус: √ проверено
Размер: 9.24 GB
Как cкачать? Как скачать Джессика Джонс через торрент | qTorrent

% Раздел Тема Автор DL S | L
Зарубежные сериалы [ 41.21 GB ] Джессика Джонс / Marvel’s Jessica Jones / Сезон: 3 / Серии: 1-13 из 13 [2019 WEBRip 720p] MVO [NewStudio] bober100 Скачать
1 | 0
Зарубежные сериалы [ 86.24 GB ] Джессика Джонс / Marvel’s Jessica Jones / Сезон: 3 / Серии: 1-13 из 13 [2019 WEBRip 1080p] MVO [NewStudio] bober100 Скачать
1 | 0
Зарубежные сериалы [ 78.51 GB ] Джессика Джонс / Jessica Jones / Сезон: 3 / Серии: 1-13 из 13 [2019 UHD WEB-DL 2160p] MVO [LostFilm] sheker187 Скачать
1 | 0
Зарубежные сериалы [ 77.62 GB ] Джессика Джонс / Jessica Jones / Сезон: 3 / Серии: 1-13 из 13 [2019 UHD WEB-DL 2160p] MVO [TVShows] sheker187 Скачать
1 | 0
Зарубежные сериалы [ 26.52 GB ] Джессика Джонс / Jessica Jones / Сезон: 3 / Серии: 1-13 из 13 [2019 WEB-DL 1080p] [MVO] killermax2013 Скачать
1 | 0
Зарубежные сериалы [ 7.79 GB ] Джессика Джонс / Jessica Jones / Сезон: 3 / Серии: 1-13 из 13 [2019 WEBRip] [MVO] killermax2013 Скачать
1 | 0
Зарубежные сериалы [ 12.82 GB ] Джессика Джонс / Jessica Jones / Сезон: 3 / Серии: 1-13 из 13 [2019 WEB 720p] MVO [LostFilm] bober100 Скачать
1 | 0

28-11-2019 20:33  

Отключить всю рекламу на сайте

    Дорогой пользователь! Огромная просьба, поблагодарите релизера, оцените раздачу и оставьте свои комментарий, если Вы скачали Джессика Джонс через торрент бесплатно! Внесите свою лепту в развитие PiratBit!
    Комментировать посты могут только пользователи прошедшие не сложную регистрацию
    Показать сообщения:    

    Джессика Джонс через торрент
    Скачать бесплатно Джессика Джонс
    Джессика Джонс скачать торрент
    Джессика Джонс смотреть онлайн
    Cкачать фильм Джессика Джонс бесплатно
    Джессика Джонс скачать торрент в хорошем качестве
    Джессика Джонс смотреть онлайн бесплатно в хорошем качестве


    Вы не можете начинать темы
    Вы не можете отвечать на сообщения
    Вы не можете редактировать свои сообщения
    Вы не можете удалять свои сообщения
    Вы не можете голосовать в опросах
    Вы не можете прикреплять файлы к сообщениям
    Вы можете скачивать файлы